找回密码

蓝光电影网

查看: 124|回复: 0

[恐怖] 恐怖亡灵 An.American.Ghost.Story.2012.1080p.AMZN.WEBRip.DDP2.0.x264-TEPES 6.37GB

[复制链接]
蓝光币
515
发表于 2020-4-26 23:58:49 | 显示全部楼层 |阅读模式
可骇亡灵 An.American.Ghost.Story.2012.1080p.AMZN.WEBRip.DDP2.0.x264-TEPES 6.37GB-1.png

译  名 可骇亡灵 / An American Ghost Story
片  名 Revenant
年  代 2012
产  地 美国
类  别 可骇
语  言 英语
上映日期 2012-10-01(美国)
IMDb评分  4.3/10 from 1131 users
IMDb链接  https://www.imdb.com/title/tt2241471
豆瓣评分 0/10 from 0 users
豆瓣链接 https://movie.douban.com/subject/24721539/
片  长 95分钟
导  演 Derek Cole
编  剧 Stephen Twardokus
主  演 Stephen Twardokus
       Liesel Kopp
       Jon Gale
       Wendy Haines


标  签 鬼屋 | 靈異 | 觀影2014 | 美国电影 | 最初一段儿太二了哈哈哈哈哈 | 可骇 | America | 2012

简  介  

  保罗·安德森(斯蒂芬Twardokus)和他的女友斯特拉(莉泽尔柯普)搬进一所屋子,是众所周知的,被困扰。保罗,一个苦苦挣扎的作家计划写关于他的经历与超自然他的第一部小说。什么起头作为一个风趣的和使人兴奋的冒险,很快就需要一个很是危险的转折。他们很称心们很称心识到有些工作是更好地零丁留在家中,你看不到的工具,不能危险到你。
  1. Video
  2. ID                                       : 1
  3. Format                                   : AVC
  4. Format/Info                              : Advanced Video Codec
  5. Format profile                           : [email protected]
  6. Format settings                          : CABAC / 4 Ref Frames
  7. Format settings, CABAC                   : Yes
  8. Format settings, Reference frames        : 4 frames
  9. Format settings, GOP                     : M=4, N=48
  10. Codec ID                                 : V_MPEG4/ISO/AVC
  11. Duration                                 : 1 h 29 min
  12. Bit rate mode                            : Constant
  13. Bit rate                                 : 10 000 kb/s
  14. Width                                    : 1 920 pixels
  15. Height                                   : 1 080 pixels
  16. Display aspect ratio                     : 16:9
  17. Frame rate mode                          : Constant
  18. Frame rate                               : 23.976 (24000/1001/189150) FPS
  19. Color space                              : YUV
  20. Chroma subsampling                       : 4:2:0
  21. Bit depth                                : 8 bits
  22. Scan type                                : Progressive
  23. Bits/(Pixel*Frame)                       : 0.201
  24. Stream size                              : 6.23 GiB (98%)
  25. Language                                 : English
  26. Default                                  : Yes
  27. Forced                                   : No
  28. Color range                              : Limited
  29. Color primaries                          : BT.709
  30. Transfer characteristics                 : BT.709
  31. Matrix coefficients                      : BT.709

  32. Audio
  33. ID                                       : 2
  34. Format                                   : E-AC-3
  35. Format/Info                              : Enhanced AC-3
  36. Commercial name                          : Dolby Digital Plus
  37. Codec ID                                 : A_EAC3
  38. Duration                                 : 1 h 29 min
  39. Bit rate mode                            : Constant
  40. Bit rate                                 : 224 kb/s
  41. Channel(s)                               : 2 channels
  42. Channel layout                           : L R
  43. Sampling rate                            : 48.0 kHz
  44. Frame rate                               : 31.250 FPS (1536 SPF)
  45. Compression mode                         : Lossy
  46. Stream size                              : 144 MiB (2%)
  47. Language                                 : English
  48. Service kind                             : Complete Main
  49. Default                                  : Yes
  50. Forced                                   : No

  51. Text
  52. ID                                       : 3
  53. Format                                   : UTF-8
  54. Codec ID                                 : S_TEXT/UTF8
  55. Codec ID/Info                            : UTF-8 Plain Text
  56. Duration                                 : 1 h 28 min
  57. Bit rate                                 : 28 b/s
  58. Count of elements                        : 676
  59. Stream size                              : 18.5 KiB (0%)
  60. Title                                    : English [CC](SDH)
  61. Language                                 : English
  62. Default                                  : Yes
  63. Forced                                   : No
复制代码

可骇亡灵 An.American.Ghost.Story.2012.1080p.AMZN.WEBRip.DDP2.0.x264-TEPES 6.37GB-2.png 可骇亡灵 An.American.Ghost.Story.2012.1080p.AMZN.WEBRip.DDP2.0.x264-TEPES 6.37GB-3.png 可骇亡灵 An.American.Ghost.Story.2012.1080p.AMZN.WEBRip.DDP2.0.x264-TEPES 6.37GB-4.png







回复

使用道具 举报

懒得打字嘛,点击右侧快捷回复 【右侧内容,后台自定义】
您需要登录后才可以回帖 登录 | 立即加入

本版积分规则

Archiver|小黑屋| 蓝光电影网 |网站地图

Copyright © 2021 Comsenz Inc. Powered by 蓝光电影网

蓝光电影网

本站内容由用户自主分享和转载自互联网,转载目的在于传递更多信息,并不代表本网赞同其观点和对其真实性负责。

如有侵权、违反国家法律政策行为,请联系我们,我们会第一时间及时清除和处理!

举报反馈邮箱:[email protected]

快速回复 返回顶部 返回列表