找回密码

蓝光电影网

查看: 2815|回复: 4

星球大战9:天行者崛起 Star.Wars.Episode.IX.The.Rise.of.Skywalker.2019.3D.1080p.BluRay.x264-GUACAMOLE 19.55GB

[复制链接]
蓝光币
519
发表于 2020-4-27 00:01:39 | 显示全部楼层 |阅读模式
星球大战9:天行者突起 Star.Wars.Episode.IX.The.Rise.of.Skywalker.2019.3D.1080p.BluRay.x264-GUACAMOLE 19.55GB-1.png

译  名 星球大战9:天行者突起 / Star Wars 9 / Star Wars: Episode IX / 星战9 / 星球大战9
片  名 Star Wars: The Rise of Skywalker
年  代 2019
产  地 美国
类  别 行动 / 科幻 / 冒险
语  言 英语
上映日期 2019-12-18(中国大陆) / 2019-12-20(美国)
IMDb评分  6.7/10 from 298838 users
IMDb链接  https://www.imdb.com/title/tt2527338
豆瓣评分 6.4/10 from 67666 users
豆瓣链接 https://movie.douban.com/subject/22265687/
片  长 142分钟
导  演 J·J·艾布拉姆斯 J.J. Abrams
编  剧 J·J·艾布拉姆斯 J.J. Abrams / 克里斯·特里奥 Chris Terrio / 乔治·卢卡斯 George Lucas / 科林·特雷沃罗 Colin Trevorrow / 德里克·康纳利 Derek Connolly
主  演 黛西·雷德利 Daisy Ridley
       亚当·德赖弗 Adam Driver
       奥斯卡·伊萨克 Oscar Isaac
       约翰·博耶加 John Boyega
       马克·哈米尔 Mark Hamill
       凯丽·费雪 Carrie Fisher
       比利·迪·威廉姆斯 Billy Dee Williams
       伊恩·麦克迪阿梅德 Ian McDiarmid
       凯丽·拉塞尔 Keri Russell
       哈里森·福特 Harrison Ford
       朱迪·科默 Jodie Comer
       比利·豪尔 Billy Howle
       马特·史姑娘 Matt Smith
       露皮塔·尼永奥 Lupita Nyong'o
       多姆纳尔·格里森 Domhnall Gleeson
       凯莉·玛丽·陈 Kelly Marie Tran
       乔纳斯·索塔莫 Joonas Suotamo
       比莉·洛德 Billie Lourd
       安东尼·丹尼尔斯 Anthony Daniels
       娜奥米·阿基 Naomi Ackie
       理查德·E·格兰特 Richard E. Grant
       多米尼克·莫纳汉 Dominic Monaghan
       格雷戈·格伦伯格 Greg Grunberg
       艾德·希兰 Ed Sheeran
       林-曼努尔·米兰达 Lin-Manuel Miranda


标  签 星球大战 | 科幻 | 美国 | 2019 | 典范 | 史诗 | 行动 | 冒险

简  介  

  本片为2017年电影《星球大战:最初的绝地军人》的续集,“星球大战后传三部曲”的第三部作品,同时是“天行者传奇”的第九部作品以及终极章。在卢克·天行者化为绝地英灵的一年后,残余的抵抗势力将再次面临第一次序。同时,绝地和西斯之间的大战将天行者的传奇带到最初。

获奖情况  

  第92届奥斯卡金像奖(2020)
  最好视觉结果(提名) 尼尔·斯坎伦 / 帕特里克·图巴赫 / 罗杰·盖耶特 / 多米尼克·多伊
  最好音效剪辑(提名)
  最好原创配乐(提名) 约翰·威廉姆斯

  第73届英国电影学院奖(2020)
  电影奖 最好特别视觉结果(提名)
  电影奖 最好原创配乐(提名) 约翰·威廉姆斯
  电影奖 最好音效(提名)

  第24届美国艺术指导工会奖(2020)
  电影奖 最好空想电影艺术指导(提名) 凯文·詹金斯 / 瑞克·卡特

  第22届美国打扮设想工会奖(2020)
  科幻/奇异题材电影最好打扮设想(提名) 迈克尔·卡普兰

  第67届美国音效剪辑协会奖(2020)
  金卷轴奖 最好电影音效剪辑(提名)

  第18届美国视觉结果协会奖(2020)
  最好殊效电影视觉结果(提名)
  最好真人电影CG布景(提名)
  最好真人电影模拟动画结果
  最好电影视觉结果分解(提名)
  1. Video
  2. ID                                       : 1
  3. Format                                   : AVC
  4. Format/Info                              : Advanced Video Codec
  5. Format profile                           : [email protected]
  6. MultiView_Count                          : 2
  7. MultiView_Layout                         : Side by Side (left eye first)
  8. Format settings                          : CABAC / 5 Ref Frames
  9. Format settings, CABAC                   : Yes
  10. Format settings, Reference frames        : 5 frames
  11. Codec ID                                 : V_MPEG4/ISO/AVC
  12. Duration                                 : 2 h 21 min
  13. Bit rate                                 : 14.7 Mb/s
  14. Width                                    : 1 920 pixels
  15. Height                                   : 804 pixels
  16. Display aspect ratio                     : 2.40:1
  17. Frame rate mode                          : Constant
  18. Frame rate                               : 23.976 (24000/1001/189150) FPS
  19. Color space                              : YUV
  20. Chroma subsampling                       : 4:2:0
  21. Bit depth                                : 8 bits
  22. Scan type                                : Progressive
  23. Bits/(Pixel*Frame)                       : 0.396
  24. Stream size                              : 14.5 GiB (74%)
  25. Writing library                          : x264 core 160 r3000 33f9e14
  26. Encoding settings                        : cabac=1 / ref=5 / deblock=1:-3:-3 / analyse=0x3:0x133 / me=umh / subme=9 / psy=1 / psy_rd=1.00:0.00 / mixed_ref=1 / me_range=32 / chroma_me=1 / trellis=2 / 8x8dct=1 / cqm=0 / deadzone=21,11 / fast_pskip=0 / chroma_qp_offset=-2 / threads=24 / lookahead_threads=2 / sliced_threads=0 / nr=0 / decimate=1 / interlaced=0 / bluray_compat=0 / constrained_intra=0 / bframes=3 / b_pyramid=2 / b_adapt=2 / b_bias=0 / direct=3 / weightb=1 / open_gop=0 / weightp=2 / keyint=250 / keyint_min=23 / scenecut=40 / intra_refresh=0 / rc=crf / mbtree=0 / crf=17.0 / qcomp=0.60 / qpmin=0 / qpmax=69 / qpstep=4 / ip_ratio=1.40 / pb_ratio=1.30 / aq=3:0.80
  27. Default                                  : Yes
  28. Forced                                   : No
  29. Color range                              : Limited
  30. Matrix coefficients                      : BT.709

  31. Audio
  32. ID                                       : 2
  33. Format                                   : DTS XLL
  34. Format/Info                              : Digital Theater Systems
  35. Commercial name                          : DTS-HD Master Audio
  36. Codec ID                                 : A_DTS
  37. Duration                                 : 2 h 21 min
  38. Bit rate mode                            : Variable
  39. Bit rate                                 : 4 997 kb/s
  40. Channel(s)                               : 8 channels
  41. Channel layout                           : C L R LFE Lb Rb Lss Rss
  42. Sampling rate                            : 48.0 kHz
  43. Frame rate                               : 93.750 FPS (512 SPF)
  44. Bit depth                                : 24 bits
  45. Compression mode                         : Lossless
  46. Stream size                              : 4.95 GiB (25%)
  47. Language                                 : English
  48. Default                                  : Yes
  49. Forced                                   : No

  50. Text #1
  51. ID                                       : 3
  52. Format                                   : PGS
  53. Muxing mode                              : zlib
  54. Codec ID                                 : S_HDMV/PGS
  55. Codec ID/Info                            : Picture based subtitle format used on BDs/HD-DVDs
  56. Duration                                 : 1 s 585 ms
  57. Bit rate                                 : 127 kb/s
  58. Count of elements                        : 2
  59. Stream size                              : 24.5 KiB (0%)
  60. Title                                    : Forced
  61. Language                                 : English
  62. Default                                  : Yes
  63. Forced                                   : Yes

  64. Text #2
  65. ID                                       : 4
  66. Format                                   : PGS
  67. Muxing mode                              : zlib
  68. Codec ID                                 : S_HDMV/PGS
  69. Codec ID/Info                            : Picture based subtitle format used on BDs/HD-DVDs
  70. Duration                                 : 2 h 11 min
  71. Bit rate                                 : 51.2 kb/s
  72. Count of elements                        : 3790
  73. Stream size                              : 48.3 MiB (0%)
  74. Title                                    : SDH
  75. Language                                 : English
  76. Default                                  : No
  77. Forced                                   : No

  78. Text #3
  79. ID                                       : 5
  80. Format                                   : PGS
  81. Muxing mode                              : zlib
  82. Codec ID                                 : S_HDMV/PGS
  83. Codec ID/Info                            : Picture based subtitle format used on BDs/HD-DVDs
  84. Duration                                 : 2 h 21 min
  85. Bit rate                                 : 34.7 kb/s
  86. Count of elements                        : 2920
  87. Stream size                              : 35.0 MiB (0%)
  88. Title                                    : SDH
  89. Language                                 : German
  90. Default                                  : No
  91. Forced                                   : No

  92. Text #4
  93. ID                                       : 6
  94. Format                                   : PGS
  95. Codec ID                                 : S_HDMV/PGS
  96. Codec ID/Info                            : Picture based subtitle format used on BDs/HD-DVDs
  97. Duration                                 : 2 h 21 min
  98. Bit rate                                 : 35.1 kb/s
  99. Count of elements                        : 2896
  100. Stream size                              : 35.4 MiB (0%)
  101. Title                                    : SDH
  102. Language                                 : Italian
  103. Default                                  : No
  104. Forced                                   : No

  105. Menu
  106. 00:00:00.000                             : :Kapitel 01
  107. 00:00:09.175                             : :Kapitel 02
  108. 00:01:40.934                             : :Kapitel 03
  109. 00:03:47.810                             : :Kapitel 04
  110. 00:06:42.902                             : :Kapitel 05
  111. 00:08:26.672                             : :Kapitel 06
  112. 00:10:04.895                             : :Kapitel 07
  113. 00:12:48.142                             : :Kapitel 08
  114. 00:13:53.999                             : :Kapitel 09
  115. 00:15:17.416                             : :Kapitel 10
  116. 00:17:13.198                             : :Kapitel 11
  117. 00:19:25.038                             : :Kapitel 12
  118. 00:21:28.578                             : :Kapitel 13
  119. 00:25:27.692                             : :Kapitel 14
  120. 00:27:14.883                             : :Kapitel 15
  121. 00:30:41.548                             : :Kapitel 16
  122. 00:35:49.063                             : :Kapitel 17
  123. 00:41:37.745                             : :Kapitel 18
  124. 00:43:15.259                             : :Kapitel 19
  125. 00:45:28.350                             : :Kapitel 20
  126. 00:48:24.568                             : :Kapitel 21
  127. 00:54:37.565                             : :Kapitel 22
  128. 00:58:49.192                             : :Kapitel 23
  129. 01:02:54.770                             : :Kapitel 24
  130. 01:06:23.104                             : :Kapitel 25
  131. 01:09:54.607                             : :Kapitel 26
  132. 01:13:07.382                             : :Kapitel 27
  133. 01:18:23.615                             : :Kapitel 28
  134. 01:23:41.224                             : :Kapitel 29
  135. 01:27:02.884                             : :Kapitel 30
  136. 01:30:23.126                             : :Kapitel 31
  137. 01:35:00.820                             : :Kapitel 32
  138. 01:38:47.880                             : :Kapitel 33
  139. 01:40:35.863                             : :Kapitel 34
  140. 01:43:03.135                             : :Kapitel 35
  141. 01:45:27.863                             : :Kapitel 36
  142. 01:48:48.188                             : :Kapitel 37
  143. 01:53:27.634                             : :Kapitel 38
  144. 01:55:30.757                             : :Kapitel 39
  145. 01:59:02.969                             : :Kapitel 40
  146. 02:01:37.748                             : :Kapitel 41
  147. 02:05:20.429                             : :Kapitel 42
  148. 02:09:42.691                             : :Kapitel 43
  149. 02:12:25.896                             : :Kapitel 44
复制代码

星球大战9:天行者突起 Star.Wars.Episode.IX.The.Rise.of.Skywalker.2019.3D.1080p.BluRay.x264-GUACAMOLE 19.55GB-2.png







回复

使用道具 举报

蓝光币
10
发表于 2020-5-17 15:24:53 | 显示全部楼层

其实我一直觉得楼主的品味不错!呵呵!蓝光电影网太棒了!
回复 支持 反对

使用道具 举报

蓝光币
271
发表于 2020-6-21 17:12:45 | 显示全部楼层
可惜 下不了
回复 支持 反对

使用道具 举报

蓝光币
828
发表于 2020-7-30 23:47:52 | 显示全部楼层
楼主发贴辛苦了,谢谢楼主分享!我觉得蓝光电影网是注册对了!
回复 支持 反对

使用道具 举报

蓝光币
22
发表于 2021-8-18 21:20:44 | 显示全部楼层
经典!!!!这东西我收了!谢谢楼主!蓝光电影网真好!
回复 支持 反对

使用道具 举报

懒得打字嘛,点击右侧快捷回复 【右侧内容,后台自定义】
您需要登录后才可以回帖 登录 | 立即加入

本版积分规则

Archiver|小黑屋| 蓝光电影网 |网站地图

Copyright © 2021 Comsenz Inc. Powered by 蓝光电影网

蓝光电影网

本站内容由用户自主分享和转载自互联网,转载目的在于传递更多信息,并不代表本网赞同其观点和对其真实性负责。

如有侵权、违反国家法律政策行为,请联系我们,我们会第一时间及时清除和处理!

举报反馈邮箱:[email protected]

快速回复 返回顶部 返回列表