找回密码

蓝光电影网

查看: 117|回复: 0

[喜剧] 寡妇发威 The.Widows.Might.2009.1080p.AMZN.WEBRip.DDP2.0.x264-ISK 3.18GB

[复制链接]
蓝光币
515
发表于 2020-4-27 00:09:00 | 显示全部楼层 |阅读模式
孀妇发威 The.Widows.Might.2009.1080p.AMZN.WEBRip.DDP2.0.x264-ISK 3.18GB-1.png

译  名 孀妇发威
片  名 The Widow's Might
年  代 2009
产  地 美国
类  别 笑剧 / 冒险
语  言 英语
上映日期 2009
IMDb评分  4.2/10 from 222 users
IMDb链接  https://www.imdb.com/title/tt1378378
豆瓣评分 0/10 from 0 users
豆瓣链接 https://movie.douban.com/subject/4223778/
片  长 USA: 101 分钟
导  演 John R. Moore
编  剧 John R. Moore
主  演 Angela Coates
       Colin Gunn


简  介  

  John Moore和Cameron Cavillo是好朋友,他们是富有豪情的电影工作者,胡想在电影节上获奖,Cameron的老了解,一位年长的孀妇,她落空了家还要面临故乡在理的税赋,她只得来投靠Cameron,大师决议采纳行动。
  1. Video
  2. ID                                       : 2
  3. Format                                   : AVC
  4. Format/Info                              : Advanced Video Codec
  5. Format profile                           : [email protected]
  6. Format settings                          : CABAC / 4 Ref Frames
  7. Format settings, CABAC                   : Yes
  8. Format settings, Reference frames        : 4 frames
  9. Codec ID                                 : V_MPEG4/ISO/AVC
  10. Duration                                 : 1 h 29 min
  11. Bit rate mode                            : Variable
  12. Bit rate                                 : 4 879 kb/s
  13. Maximum bit rate                         : 15.0 Mb/s
  14. Width                                    : 1 920 pixels
  15. Height                                   : 816 pixels
  16. Display aspect ratio                     : 2.35:1
  17. Frame rate mode                          : Constant
  18. Frame rate                               : 23.976 (24000/1001/189150) FPS
  19. Color space                              : YUV
  20. Chroma subsampling                       : 4:2:0
  21. Bit depth                                : 8 bits
  22. Scan type                                : Progressive
  23. Bits/(Pixel*Frame)                       : 0.130
  24. Stream size                              : 3.04 GiB (96%)
  25. Default                                  : Yes
  26. Forced                                   : No
  27. Color range                              : Limited
  28. Color primaries                          : BT.709
  29. Transfer characteristics                 : BT.709
  30. Matrix coefficients                      : BT.709

  31. Audio
  32. ID                                       : 1
  33. Format                                   : E-AC-3
  34. Format/Info                              : Enhanced AC-3
  35. Commercial name                          : Dolby Digital Plus
  36. Codec ID                                 : A_EAC3
  37. Duration                                 : 1 h 29 min
  38. Bit rate mode                            : Constant
  39. Bit rate                                 : 224 kb/s
  40. Channel(s)                               : 2 channels
  41. Channel layout                           : L R
  42. Sampling rate                            : 48.0 kHz
  43. Frame rate                               : 31.250 FPS (1536 SPF)
  44. Compression mode                         : Lossy
  45. Stream size                              : 143 MiB (4%)
  46. Language                                 : English
  47. Service kind                             : Complete Main
  48. Default                                  : Yes
  49. Forced                                   : No

  50. Text
  51. ID                                       : 3
  52. Format                                   : UTF-8
  53. Codec ID                                 : S_TEXT/UTF8
  54. Codec ID/Info                            : UTF-8 Plain Text
  55. Duration                                 : 1 h 25 min
  56. Bit rate                                 : 73 b/s
  57. Count of elements                        : 1603
  58. Stream size                              : 46.4 KiB (0%)
  59. Language                                 : English
  60. Default                                  : Yes
  61. Forced                                   : No
复制代码

孀妇发威 The.Widows.Might.2009.1080p.AMZN.WEBRip.DDP2.0.x264-ISK 3.18GB-2.png 孀妇发威 The.Widows.Might.2009.1080p.AMZN.WEBRip.DDP2.0.x264-ISK 3.18GB-3.png 孀妇发威 The.Widows.Might.2009.1080p.AMZN.WEBRip.DDP2.0.x264-ISK 3.18GB-4.png







回复

使用道具 举报

懒得打字嘛,点击右侧快捷回复 【右侧内容,后台自定义】
您需要登录后才可以回帖 登录 | 立即加入

本版积分规则

Archiver|小黑屋| 蓝光电影网 |网站地图

Copyright © 2021 Comsenz Inc. Powered by 蓝光电影网

蓝光电影网

本站内容由用户自主分享和转载自互联网,转载目的在于传递更多信息,并不代表本网赞同其观点和对其真实性负责。

如有侵权、违反国家法律政策行为,请联系我们,我们会第一时间及时清除和处理!

举报反馈邮箱:[email protected]

快速回复 返回顶部 返回列表