找回密码

蓝光电影网

查看: 302|回复: 0

[纪录] 网飞对抗全世界 Netflix.vs.the.World.2019.1080p.AMZN.WEBRip.DDP2.0.x264-NTb 5.33GB

[复制链接]
蓝光币
515
发表于 2020-4-27 00:09:49 | 显示全部楼层 |阅读模式
网飞匹敌全天下 Netflix.vs.the.World.2019.1080p.AMZN.WEBRip.DDP2.0.x264-NTb 5.33GB-1.png

译  名 网飞匹敌全天下
片  名 Netflix vs. the World
年  代 2019
产  地 美国
类  别 记载片
语  言 英语
上映日期 2019(美国)
IMDb评分  8.1/10 from 24 users
IMDb链接  https://www.imdb.com/title/tt8407418
豆瓣评分 0/10 from 0 users
豆瓣链接 https://movie.douban.com/subject/30432304/
导  演 肖恩·考特 Shawn Cauthen
编  剧 Gina Keating
主  演 丹泽尔·华盛顿 Denzel Washington
       罗伯特·雷德福 Robert Redford
       凯特·玛拉 Kate Mara
       安东尼·福奎阿 Antoine Fuqua
       达丝莎·坡兰科 Dascha Polanco
       萨米拉·威利 Samira Wiley
       肖恩·利维 Shawn Levy
       德里克·塞西尔 Derek Cecil
       鲍尔·威利蒙 Beau Willimon
       Ted Sarandos
       Reed Hastings
       比尔·麦克尼柯 Bill Mechanic
       Mitch Lowe
       Dawn Chmielewski
       本·库珀 Ben Cooper
       David Griffin
       Didier Allouch
       Gerrad Hall
       Guillermo de Mulder
       Heidi Nyburg


标  签 Netflix | 记载片 | 美国 | 2019 | 美国电影 | 2019观望 | 没有片源

简  介  

  本片基于吉娜·基廷的书《网飞传奇》(Netflixed: The Epic Battle for America's Eyeballs)改编。从1997年诞生至今,Netflix的成长进程,简直就是一部跌宕升沉的商战片。这本书中,会给你一个细致入微的复原。
  1. Video
  2. ID                                       : 1
  3. Format                                   : AVC
  4. Format/Info                              : Advanced Video Codec
  5. Format profile                           : [email protected]
  6. Format settings                          : CABAC / 4 Ref Frames
  7. Format settings, CABAC                   : Yes
  8. Format settings, Reference frames        : 4 frames
  9. Codec ID                                 : V_MPEG4/ISO/AVC
  10. Duration                                 : 1 h 44 min
  11. Bit rate mode                            : Constant
  12. Bit rate                                 : 7 074 kb/s
  13. Nominal bit rate                         : 10 000 kb/s
  14. Width                                    : 1 920 pixels
  15. Height                                   : 1 080 pixels
  16. Display aspect ratio                     : 16:9
  17. Frame rate mode                          : Constant
  18. Frame rate                               : 23.976 (24000/1001/189150) FPS
  19. Color space                              : YUV
  20. Chroma subsampling                       : 4:2:0
  21. Bit depth                                : 8 bits
  22. Scan type                                : Progressive
  23. Bits/(Pixel*Frame)                       : 0.142
  24. Stream size                              : 5.17 GiB (97%)
  25. Default                                  : Yes
  26. Forced                                   : No
  27. Color range                              : Limited
  28. Color primaries                          : BT.709
  29. Transfer characteristics                 : BT.709
  30. Matrix coefficients                      : BT.709

  31. Audio
  32. ID                                       : 2
  33. Format                                   : E-AC-3
  34. Format/Info                              : Enhanced AC-3
  35. Commercial name                          : Dolby Digital Plus
  36. Codec ID                                 : A_EAC3
  37. Duration                                 : 1 h 44 min
  38. Bit rate mode                            : Constant
  39. Bit rate                                 : 224 kb/s
  40. Channel(s)                               : 2 channels
  41. Channel layout                           : L R
  42. Sampling rate                            : 48.0 kHz
  43. Frame rate                               : 31.250 FPS (1536 SPF)
  44. Compression mode                         : Lossy
  45. Stream size                              : 167 MiB (3%)
  46. Language                                 : English
  47. Service kind                             : Complete Main
  48. Default                                  : Yes
  49. Forced                                   : No

  50. Text
  51. ID                                       : 3
  52. Format                                   : UTF-8
  53. Codec ID                                 : S_TEXT/UTF8
  54. Codec ID/Info                            : UTF-8 Plain Text
  55. Duration                                 : 1 h 44 min
  56. Bit rate                                 : 128 b/s
  57. Count of elements                        : 2528
  58. Stream size                              : 98.3 KiB (0%)
  59. Title                                    : SDH
  60. Language                                 : English
  61. Default                                  : No
  62. Forced                                   : No
复制代码

网飞匹敌全天下 Netflix.vs.the.World.2019.1080p.AMZN.WEBRip.DDP2.0.x264-NTb 5.33GB-2.png 网飞匹敌全天下 Netflix.vs.the.World.2019.1080p.AMZN.WEBRip.DDP2.0.x264-NTb 5.33GB-3.png 网飞匹敌全天下 Netflix.vs.the.World.2019.1080p.AMZN.WEBRip.DDP2.0.x264-NTb 5.33GB-4.png






回复

使用道具 举报

懒得打字嘛,点击右侧快捷回复 【右侧内容,后台自定义】
您需要登录后才可以回帖 登录 | 立即加入

本版积分规则

Archiver|小黑屋| 蓝光电影网 |网站地图

Copyright © 2021 Comsenz Inc. Powered by 蓝光电影网

蓝光电影网

本站内容由用户自主分享和转载自互联网,转载目的在于传递更多信息,并不代表本网赞同其观点和对其真实性负责。

如有侵权、违反国家法律政策行为,请联系我们,我们会第一时间及时清除和处理!

举报反馈邮箱:[email protected]

快速回复 返回顶部 返回列表