找回密码

蓝光电影网

查看: 262|回复: 1

[纪录] 兴盛/萌芽 Thrive.2011.1080p.BluRay.x264-MOOVEE 7.95GB

[复制链接]
蓝光币
519
发表于 2020-4-27 13:23:03 | 显示全部楼层 |阅读模式
MV5BNTU0OTczMTUyMl5BMl5BanBnXkFtZTcwNDYzNTM4Ng@@._V1_SY1000_CR0,0,772,1000_AL_.jpg

译  名 兴盛 / 抽芽
片  名 Thrive
年  代 2011
产  地 美国
类  别 记载片
语  言 英语
上映日期 2011-11-11(美国)
IMDb评分  6.8/10 from 2654 users
IMDb链接  https://www.imdb.com/title/tt2063834
豆瓣评分 7.5/10 from 1035 users
豆瓣链接 https://movie.douban.com/subject/6876006/
片  长 132分钟
导  演 Stephen Gagne / Kimberly Carter Gamble
编  剧 Neal Rogin / Foster Gamble / Kimberly Carter Gamble
主  演 Lane Andrews
       Dwynne Arnesson
       John Bedini
       John Callahan
       Deepak Chopra
       Frank Doran
       Albert Einstein
       Duane Elgin


标  签 记载片 | 美国 | 诡计论 | 真相 | 2011 | 科学 | 经济 | 深思

简  介  

  这是一部经过追踪经济成长而揭开天下运作方式,并涵盖影响我们生命的各类气力面纱的,很是规型记载电影。把科学范畴的冲破与发觉、行动编织在一路,《兴盛》供给给我们实在的处理方式,使我们可以用史无前例地、无畏地计谋来革新我们的生活和我们的未来。
  1. Video
  2. ID                                       : 1
  3. Format                                   : AVC
  4. Format/Info                              : Advanced Video Codec
  5. Format profile                           : [email protected]
  6. Format settings                          : CABAC / 4 Ref Frames
  7. Format settings, CABAC                   : Yes
  8. Format settings, Reference frames        : 4 frames
  9. Muxing mode                              : Header stripping
  10. Codec ID                                 : V_MPEG4/ISO/AVC
  11. Duration                                 : 2 h 12 min
  12. Bit rate                                 : 8 357 kb/s
  13. Width                                    : 1 920 pixels
  14. Height                                   : 1 080 pixels
  15. Display aspect ratio                     : 16:9
  16. Frame rate mode                          : Constant
  17. Frame rate                               : 23.976 (24000/1001/189150) FPS
  18. Color space                              : YUV
  19. Chroma subsampling                       : 4:2:0
  20. Bit depth                                : 8 bits
  21. Scan type                                : Progressive
  22. Bits/(Pixel*Frame)                       : 0.168
  23. Stream size                              : 7.55 GiB (95%)
  24. Writing library                          : x264 core 120 r2120 0c7dab9
  25. Encoding settings                        : cabac=1 / ref=4 / deblock=1:0:0 / analyse=0x3:0x133 / me=umh / subme=8 / psy=1 / psy_rd=1.00:0.00 / mixed_ref=1 / me_range=16 / chroma_me=1 / trellis=1 / 8x8dct=1 / cqm=0 / deadzone=21,11 / fast_pskip=0 / chroma_qp_offset=-2 / threads=18 / sliced_threads=0 / nr=0 / decimate=1 / interlaced=0 / bluray_compat=0 / constrained_intra=0 / bframes=3 / b_pyramid=2 / b_adapt=1 / b_bias=0 / direct=1 / weightb=1 / open_gop=0 / weightp=2 / keyint=250 / keyint_min=23 / scenecut=40 / intra_refresh=0 / rc_lookahead=40 / rc=2pass / mbtree=1 / bitrate=8357 / ratetol=1.0 / qcomp=0.60 / qpmin=0 / qpmax=69 / qpstep=4 / cplxblur=20.0 / qblur=0.5 / ip_ratio=1.40 / aq=1:1.00
  26. Language                                 : English
  27. Default                                  : Yes
  28. Forced                                   : No

  29. Audio
  30. ID                                       : 2
  31. Format                                   : AC-3
  32. Format/Info                              : Audio Coding 3
  33. Commercial name                          : Dolby Digital
  34. Muxing mode                              : Header stripping
  35. Codec ID                                 : A_AC3
  36. Duration                                 : 2 h 12 min
  37. Bit rate mode                            : Constant
  38. Bit rate                                 : 256 kb/s
  39. Channel(s)                               : 2 channels
  40. Channel layout                           : L R
  41. Sampling rate                            : 48.0 kHz
  42. Frame rate                               : 31.250 FPS (1536 SPF)
  43. Bit depth                                : 16 bits
  44. Compression mode                         : Lossy
  45. Stream size                              : 242 MiB (3%)
  46. Service kind                             : Complete Main
  47. Default                                  : Yes
  48. Forced                                   : No
复制代码

兴盛/抽芽 Thrive.2011.1080p.BluRay.x264-MOOVEE 7.95GB-1.png 兴盛/抽芽 Thrive.2011.1080p.BluRay.x264-MOOVEE 7.95GB-2.png 兴盛/抽芽 Thrive.2011.1080p.BluRay.x264-MOOVEE 7.95GB-3.png







回复

使用道具 举报

蓝光币
642
发表于 2020-4-28 09:05:33 | 显示全部楼层
谢谢楼主无私分享。
回复 支持 反对

使用道具 举报

懒得打字嘛,点击右侧快捷回复 【右侧内容,后台自定义】
您需要登录后才可以回帖 登录 | 立即加入

本版积分规则

Archiver|小黑屋| 蓝光电影网 |网站地图

Copyright © 2021 Comsenz Inc. Powered by 蓝光电影网

蓝光电影网

本站内容由用户自主分享和转载自互联网,转载目的在于传递更多信息,并不代表本网赞同其观点和对其真实性负责。

如有侵权、违反国家法律政策行为,请联系我们,我们会第一时间及时清除和处理!

举报反馈邮箱:[email protected]

快速回复 返回顶部 返回列表