找回密码

蓝光电影网

查看: 203|回复: 2

[剧情] 美好的时代绝妙的时代 Good.Times.Wonderful.Times.1966.1080p.BluRay.x264-HD4U 4.37GB

[复制链接]
蓝光币
515
发表于 2020-4-27 13:25:39 | 显示全部楼层 |阅读模式
MV5BMDFiOGIzZmMtMmZjYS00Mzk1LWI5NDItZmMxZWU0N2UwYmNiXkEyXkFqcGdeQXVyNzEyNjUwMTA@.jpg

译  名 美好的时代,绝妙的时代
片  名 Good Times, Wonderful Times
年  代 1966
产  地 美国
类  别 剧情 / 记载片 / 战争
语  言 英语
上映日期 1966
IMDb评分  7.0/10 from 122 users
IMDb链接  https://www.imdb.com/title/tt0144017
豆瓣评分 0/10 from 0 users
豆瓣链接 https://movie.douban.com/subject/4887255/
片  长 Germany: 70 分钟
导  演 Lionel Rogosin

标  签 美国 | 1966 | 美国电影 | LionelRogosin | 记载片 | 自力电影 | 人 | 1960s

简  介  

  暂无相关剧情先容

获奖情况  

  第26届威尼斯电影节(1965)
  主比赛单元 金狮奖 (提名) 莱昂内尔·罗戈辛
  1. Video
  2. ID                                       : 1
  3. Format                                   : AVC
  4. Format/Info                              : Advanced Video Codec
  5. Format profile                           : [email protected]
  6. Format settings                          : CABAC / 4 Ref Frames
  7. Format settings, CABAC                   : Yes
  8. Format settings, Reference frames        : 4 frames
  9. Muxing mode                              : Header stripping
  10. Codec ID                                 : V_MPEG4/ISO/AVC
  11. Duration                                 : 1 h 10 min
  12. Bit rate                                 : 8 270 kb/s
  13. Width                                    : 1 440 pixels
  14. Height                                   : 1 080 pixels
  15. Display aspect ratio                     : 4:3
  16. Frame rate mode                          : Constant
  17. Frame rate                               : 23.976 FPS
  18. Color space                              : YUV
  19. Chroma subsampling                       : 4:2:0
  20. Bit depth                                : 8 bits
  21. Scan type                                : Progressive
  22. Bits/(Pixel*Frame)                       : 0.222
  23. Stream size                              : 3.97 GiB (91%)
  24. Writing library                          : x264 core 120 r2164 da19765
  25. Encoding settings                        : cabac=1 / ref=4 / deblock=1:0:0 / analyse=0x3:0x133 / me=umh / subme=7 / psy=1 / psy_rd=1.00:0.00 / mixed_ref=1 / me_range=16 / chroma_me=1 / trellis=1 / 8x8dct=1 / cqm=0 / deadzone=21,11 / fast_pskip=0 / chroma_qp_offset=-2 / threads=12 / sliced_threads=0 / nr=0 / decimate=1 / interlaced=0 / bluray_compat=0 / constrained_intra=0 / bframes=3 / b_pyramid=2 / b_adapt=1 / b_bias=0 / direct=1 / weightb=1 / open_gop=0 / weightp=2 / keyint=250 / keyint_min=23 / scenecut=40 / intra_refresh=0 / rc_lookahead=40 / rc=2pass / mbtree=1 / bitrate=8270 / ratetol=1.0 / qcomp=0.60 / qpmin=0 / qpmax=69 / qpstep=4 / cplxblur=20.0 / qblur=0.5 / ip_ratio=1.40 / aq=1:1.00
  26. Language                                 : English
  27. Default                                  : Yes
  28. Forced                                   : No

  29. Audio
  30. ID                                       : 2
  31. Format                                   : AC-3
  32. Format/Info                              : Audio Coding 3
  33. Commercial name                          : Dolby Digital
  34. Muxing mode                              : Header stripping
  35. Codec ID                                 : A_AC3
  36. Duration                                 : 1 h 10 min
  37. Bit rate mode                            : Constant
  38. Bit rate                                 : 640 kb/s
  39. Channel(s)                               : 2 channels
  40. Channel layout                           : L R
  41. Sampling rate                            : 48.0 kHz
  42. Frame rate                               : 31.250 FPS (1536 SPF)
  43. Bit depth                                : 16 bits
  44. Compression mode                         : Lossy
  45. Stream size                              : 322 MiB (7%)
  46. Language                                 : English
  47. Service kind                             : Complete Main
  48. Default                                  : Yes
  49. Forced                                   : No
复制代码

美好的时代绝妙的时代 Good.Times.Wonderful.Times.1966.1080p.BluRay.x264-HD4U 4.37GB-1.png 美好的时代绝妙的时代 Good.Times.Wonderful.Times.1966.1080p.BluRay.x264-HD4U 4.37GB-2.png 美好的时代绝妙的时代 Good.Times.Wonderful.Times.1966.1080p.BluRay.x264-HD4U 4.37GB-3.png






回复

使用道具 举报

蓝光币
56
发表于 2020-4-27 16:51:16 | 显示全部楼层

既然你诚信诚意的推荐了,那我就勉为其难的看看吧!蓝光电影网不走平凡路。
回复 支持 反对

使用道具 举报

懒得打字嘛,点击右侧快捷回复 【右侧内容,后台自定义】
您需要登录后才可以回帖 登录 | 立即加入

本版积分规则

Archiver|小黑屋| 蓝光电影网 |网站地图

Copyright © 2021 Comsenz Inc. Powered by 蓝光电影网

蓝光电影网

本站内容由用户自主分享和转载自互联网,转载目的在于传递更多信息,并不代表本网赞同其观点和对其真实性负责。

如有侵权、违反国家法律政策行为,请联系我们,我们会第一时间及时清除和处理!

举报反馈邮箱:[email protected]

快速回复 返回顶部 返回列表