找回密码

蓝光电影网

查看: 1717|回复: 7

[动作] 喋血战士/血卫 Bloodshot.2020.1080p.BluRay.x264.TrueHD.7.1.Atmos-FGT 14.08GB

[复制链接]
蓝光币
519
发表于 2020-4-27 13:32:05 | 显示全部楼层 |阅读模式
蹀血战士/血卫 Bloodshot.2020.1080p.BluRay.x264.TrueHD.7.1.Atmos-FGT 14.08GB-1.png

译  名 蹀血战士 / 血卫(台)
片  名 Bloodshot
年  代 2020
产  地 中国大陆 / 美国
类  别 行动 / 科幻
语  言 英语
上映日期 2020(中国大陆) / 2020-03-13(美国)
IMDb评分  5.7/10 from 22822 users
IMDb链接  https://www.imdb.com/title/tt1634106
豆瓣评分 5.4/10 from 7376 users
豆瓣链接 https://movie.douban.com/subject/4830483/
片  长 109分钟
导  演 戴夫·威尔逊 Dave Wilson
编  剧 杰夫·瓦德洛 Jeff Wadlow / 埃里克·海瑟尔 Eric Heisserer / 凯文·范霍克 Kevin VanHook
主  演 范·迪塞尔 Vin Diesel
       艾莎·冈萨雷斯 Eiza González
       萨姆·修汉 Sam Heughan
       托比·凯贝尔 Toby Kebbell
       妲露拉·莱莉 Talulah Riley
       拉蒙尼·莫里斯 Lamorne Morris
       盖·皮尔斯 Guy Pearce
       悉达尔斯·达南杰 Siddharth Dhananjay
       泰勒·迈尔 Tyrel Meyer
       亚历克斯·安洛斯 Alex Anlos
       克莱德·伯宁 Clyde Berning
       杰里米·博阿多 Jeremy Boado
       塔梅尔·伯贾克 Tamer Burjaq
       亚历克斯·埃尔南德斯 Alex Hernandez
       约翰内斯·豪克尔·约翰内森 Jóhannes Haukur Jóhannesson
       帕特里克·克尔顿 Patrick Kerton


标  签 科幻 | 行动 | 美国 | 2020 | 超级豪杰 | 漫画改编 | 蹀血战士 | 奇异

简  介  

  电影按照勇士漫画改编,报告由范·迪塞尔饰演的兵士雷·加里森在战役中意外阵亡,被RST公司操纵尖端纳米技术起死复生,变身立即自愈、媲美超级电脑的超级豪杰——蹀血战士。苏醒的他固执于脑海中残余的记忆碎片,踏上为爱妻的复仇之路,却发现自己竟没法分清实在与虚幻...
  1. Video
  2. ID                                       : 1
  3. Format                                   : AVC
  4. Format/Info                              : Advanced Video Codec
  5. Format profile                           : [email protected]
  6. Format settings                          : CABAC / 5 Ref Frames
  7. Format settings, CABAC                   : Yes
  8. Format settings, Reference frames        : 5 frames
  9. Codec ID                                 : V_MPEG4/ISO/AVC
  10. Duration                                 : 1 h 49 min
  11. Bit rate                                 : 14.5 Mb/s
  12. Width                                    : 1 920 pixels
  13. Height                                   : 804 pixels
  14. Display aspect ratio                     : 2.40:1
  15. Frame rate mode                          : Constant
  16. Frame rate                               : 23.976 (24000/1001/189150) FPS
  17. Color space                              : YUV
  18. Chroma subsampling                       : 4:2:0
  19. Bit depth                                : 8 bits
  20. Scan type                                : Progressive
  21. Bits/(Pixel*Frame)                       : 0.392
  22. Stream size                              : 11.1 GiB (79%)
  23. Title                                    : Bloodshot.2020.1080p.BluRay.x264.TrueHD.7.1.Atmos-FGT
  24. Writing library                          : x264 core 160 r3000 33f9e14
  25. Encoding settings                        : cabac=1 / ref=5 / deblock=1:-3:-3 / analyse=0x3:0x133 / me=umh / subme=10 / psy=1 / psy_rd=1.00:0.00 / mixed_ref=1 / me_range=32 / chroma_me=1 / trellis=2 / 8x8dct=1 / cqm=0 / deadzone=21,11 / fast_pskip=0 / chroma_qp_offset=-2 / threads=12 / lookahead_threads=2 / sliced_threads=0 / nr=0 / decimate=0 / interlaced=0 / bluray_compat=0 / constrained_intra=0 / bframes=8 / b_pyramid=2 / b_adapt=2 / b_bias=0 / direct=3 / weightb=1 / open_gop=0 / weightp=2 / keyint=250 / keyint_min=23 / scenecut=40 / intra_refresh=0 / rc=crf / mbtree=0 / crf=16.7 / qcomp=0.60 / qpmin=0 / qpmax=69 / qpstep=4 / ip_ratio=1.40 / pb_ratio=1.30 / aq=3:0.80
  26. Language                                 : English
  27. Default                                  : Yes
  28. Forced                                   : No

  29. Audio #1
  30. ID                                       : 2
  31. Format                                   : MLP FBA 16-ch
  32. Format/Info                              : Meridian Lossless Packing FBA with 16-channel presentation
  33. Commercial name                          : Dolby TrueHD with Dolby Atmos
  34. Codec ID                                 : A_TRUEHD
  35. Duration                                 : 1 h 49 min
  36. Bit rate mode                            : Variable
  37. Bit rate                                 : 3 188 kb/s
  38. Maximum bit rate                         : 5 454 kb/s
  39. Channel(s)                               : 8 channels
  40. Channel layout                           : L R C LFE Ls Rs Lb Rb
  41. Sampling rate                            : 48.0 kHz
  42. Frame rate                               : 1 200.000 FPS (40 SPF)
  43. Compression mode                         : Lossless
  44. Stream size                              : 2.43 GiB (17%)
  45. Title                                    : Bloodshot.2020.1080p.BluRay.x264.TrueHD.7.1.Atmos-FGT
  46. Language                                 : English
  47. Default                                  : Yes
  48. Forced                                   : No
  49. Number of dynamic objects                : 11
  50. Bed channel count                        : 1 channel
  51. Bed channel configuration                : LFE

  52. Audio #2
  53. ID                                       : 3
  54. Format                                   : AC-3
  55. Format/Info                              : Audio Coding 3
  56. Commercial name                          : Dolby Digital
  57. Codec ID                                 : A_AC3
  58. Duration                                 : 1 h 49 min
  59. Bit rate mode                            : Constant
  60. Bit rate                                 : 640 kb/s
  61. Channel(s)                               : 6 channels
  62. Channel layout                           : L R C LFE Ls Rs
  63. Sampling rate                            : 48.0 kHz
  64. Frame rate                               : 31.250 FPS (1536 SPF)
  65. Bit depth                                : 16 bits
  66. Compression mode                         : Lossy
  67. Stream size                              : 500 MiB (3%)
  68. Title                                    : Bloodshot.2020.1080p.BluRay.x264.TrueHD.7.1.Atmos-FGT
  69. Language                                 : English
  70. Service kind                             : Complete Main
  71. Default                                  : No
  72. Forced                                   : No

  73. Text #1
  74. ID                                       : 4
  75. Format                                   : UTF-8
  76. Codec ID                                 : S_TEXT/UTF8
  77. Codec ID/Info                            : UTF-8 Plain Text
  78. Duration                                 : 1 h 41 min
  79. Bit rate                                 : 45 b/s
  80. Count of elements                        : 1015
  81. Stream size                              : 33.9 KiB (0%)
  82. Title                                    : English-SRT
  83. Language                                 : English
  84. Default                                  : Yes
  85. Forced                                   : No

  86. Text #2
  87. ID                                       : 5
  88. Format                                   : PGS
  89. Muxing mode                              : zlib
  90. Codec ID                                 : S_HDMV/PGS
  91. Codec ID/Info                            : Picture based subtitle format used on BDs/HD-DVDs
  92. Duration                                 : 1 h 43 min
  93. Bit rate                                 : 30.9 kb/s
  94. Count of elements                        : 2318
  95. Stream size                              : 22.9 MiB (0%)
  96. Title                                    : English-PGS
  97. Language                                 : English
  98. Default                                  : No
  99. Forced                                   : No

  100. Text #3
  101. ID                                       : 6
  102. Format                                   : PGS
  103. Muxing mode                              : zlib
  104. Codec ID                                 : S_HDMV/PGS
  105. Codec ID/Info                            : Picture based subtitle format used on BDs/HD-DVDs
  106. Duration                                 : 1 h 41 min
  107. Bit rate                                 : 28.0 kb/s
  108. Count of elements                        : 2030
  109. Stream size                              : 20.3 MiB (0%)
  110. Title                                    : English-SDH-PGS
  111. Language                                 : English
  112. Default                                  : No
  113. Forced                                   : No

  114. Text #4
  115. ID                                       : 7
  116. Format                                   : PGS
  117. Muxing mode                              : zlib
  118. Codec ID                                 : S_HDMV/PGS
  119. Codec ID/Info                            : Picture based subtitle format used on BDs/HD-DVDs
  120. Duration                                 : 1 h 48 min
  121. Bit rate                                 : 23.1 kb/s
  122. Count of elements                        : 2234
  123. Stream size                              : 17.8 MiB (0%)
  124. Title                                    : French-PGS
  125. Language                                 : French
  126. Default                                  : No
  127. Forced                                   : No

  128. Text #5
  129. ID                                       : 8
  130. Format                                   : PGS
  131. Muxing mode                              : zlib
  132. Codec ID                                 : S_HDMV/PGS
  133. Codec ID/Info                            : Picture based subtitle format used on BDs/HD-DVDs
  134. Duration                                 : 1 h 48 min
  135. Bit rate                                 : 25.7 kb/s
  136. Count of elements                        : 2204
  137. Stream size                              : 19.9 MiB (0%)
  138. Title                                    : French-PGS
  139. Language                                 : Spanish
  140. Default                                  : No
  141. Forced                                   : No

  142. Menu
  143. 00:00:00.000                             : en:Chapter 01
  144. 00:07:06.384                             : en:Chapter 02
  145. 00:13:56.210                             : en:Chapter 03
  146. 00:20:36.861                             : en:Chapter 04
  147. 00:25:05.546                             : en:Chapter 05
  148. 00:32:11.179                             : en:Chapter 06
  149. 00:41:41.499                             : en:Chapter 07
  150. 00:46:39.380                             : en:Chapter 08
  151. 00:53:35.629                             : en:Chapter 09
  152. 01:02:28.495                             : en:Chapter 10
  153. 01:08:59.344                             : en:Chapter 11
  154. 01:12:42.525                             : en:Chapter 12
  155. 01:19:15.918                             : en:Chapter 13
  156. 01:26:49.996                             : en:Chapter 14
  157. 01:31:07.379                             : en:Chapter 15
  158. 01:38:31.531                             : en:Chapter 16
  159. 01:44:11.245                             : en:Chapter 17
复制代码

蹀血战士/血卫 Bloodshot.2020.1080p.BluRay.x264.TrueHD.7.1.Atmos-FGT 14.08GB-2.png 蹀血战士/血卫 Bloodshot.2020.1080p.BluRay.x264.TrueHD.7.1.Atmos-FGT 14.08GB-3.png 蹀血战士/血卫 Bloodshot.2020.1080p.BluRay.x264.TrueHD.7.1.Atmos-FGT 14.08GB-4.png







回复

使用道具 举报

蓝光币
642
发表于 2020-4-27 14:52:27 | 显示全部楼层
谢谢楼主无私分享。
回复 支持 反对

使用道具 举报

蓝光币
115
发表于 2020-4-27 21:01:08 | 显示全部楼层

楼主太厉害了!楼主,电影应该很好看我觉得蓝光电影网真是个好地方!
回复 支持 反对

使用道具 举报

蓝光币
271
发表于 2020-11-5 22:20:09 | 显示全部楼层
谢谢分享 这片听说还不错哦
回复 支持 反对

使用道具 举报

蓝光币
101
发表于 2020-11-19 20:46:27 | 显示全部楼层
谢谢楼主分享
回复 支持 反对

使用道具 举报

蓝光币
1
发表于 2021-8-6 09:38:06 | 显示全部楼层
感谢大神的分享
回复 支持 反对

使用道具 举报

蓝光币
771
发表于 2021-8-16 12:00:59 来自手机 | 显示全部楼层
感谢楼主分享!
回复 支持 反对

使用道具 举报

蓝光币
15
发表于 2021-9-4 15:27:42 | 显示全部楼层

谢谢楼主无私分享。
回复 支持 反对

使用道具 举报

懒得打字嘛,点击右侧快捷回复 【右侧内容,后台自定义】
您需要登录后才可以回帖 登录 | 立即加入

本版积分规则

Archiver|小黑屋| 蓝光电影网 |网站地图

Copyright © 2021 Comsenz Inc. Powered by 蓝光电影网

蓝光电影网

本站内容由用户自主分享和转载自互联网,转载目的在于传递更多信息,并不代表本网赞同其观点和对其真实性负责。

如有侵权、违反国家法律政策行为,请联系我们,我们会第一时间及时清除和处理!

举报反馈邮箱:[email protected]

快速回复 返回顶部 返回列表