找回密码

蓝光电影网

查看: 782|回复: 5

[剧情] 少年黑手党 Piranhas.2019.1080p.BluRay.x264-USURY 14.01GB

[复制链接]
蓝光币
515
发表于 2020-4-27 13:33:54 | 显示全部楼层 |阅读模式
少年黑手党 Piranhas.2019.1080p.BluRay.x264-USURY 14.01GB-1.png

译  名 少年黑手党 / Piranhas / 陌头少年 / 花天酒地拿坡里(港)
片  名 La Paranza dei Bambini
年  代 2019
产  地 意大利
类  别 剧情
语  言 意大利语
上映日期 2019-02-12(柏林电影节) / 2019-02-14(意大利)
IMDb评分  6.4/10 from 2895 users
IMDb链接  https://www.imdb.com/title/tt8740778
豆瓣评分 7.1/10 from 1548 users
豆瓣链接 https://movie.douban.com/subject/30427478/
片  长 110分钟
导  演 克劳迪欧·吉瓦内斯 Claudio Giovannesi
编  剧 毛里齐奥·布拉奇 Maurizio Braucci / 克劳迪欧·吉瓦内斯 Claudio Giovannesi / 罗伯特·萨维亚诺 Roberto Saviano
主  演 薇薇安娜·阿普雷亚 Viviana Aprea
       马蒂亚·皮亚诺·德尔·巴尔佐 Mattia Piano Del Balzo
       弗朗西斯科·迪·那布勒 Francesco Di Napoli
       帕斯夸尔·马洛塔 Pasquale Marotta
       阿涅洛·阿雷纳 Aniello Arena


标  签 意大利 | 黑帮 | 犯罪 | 青春 | 2019 | 剧情 | 柏林电影节 | 第69届柏林电影节

简  介  

  一群十几岁的男孩拿动手枪和AK-47在那不勒斯的街道上巡查,以履行他们的大盗头子标号令。

获奖情况  

  第69届柏林国际电影节(2019)
  金熊奖(提名) 克劳迪欧·吉瓦内斯
  银熊奖 最好剧本 克劳迪欧·吉瓦内斯

  第32届欧洲电影奖(2019)
  最好摄影(提名)

  第65届意大利大卫奖(2020)
  最好影片(提名)
  最好导演(提名) 克劳迪欧·吉瓦内斯
  最好改编剧本(提名) 毛里齐奥·布拉奇 / 克劳迪欧·吉瓦内斯
  1. Video
  2. ID                                       : 1
  3. Format                                   : AVC
  4. Format/Info                              : Advanced Video Codec
  5. Format profile                           : [email protected]
  6. Format settings                          : CABAC / 5 Ref Frames
  7. Format settings, CABAC                   : Yes
  8. Format settings, Reference frames        : 5 frames
  9. Codec ID                                 : V_MPEG4/ISO/AVC
  10. Duration                                 : 1 h 51 min
  11. Bit rate                                 : 14.3 Mb/s
  12. Width                                    : 1 920 pixels
  13. Height                                   : 804 pixels
  14. Display aspect ratio                     : 2.40:1
  15. Frame rate mode                          : Constant
  16. Frame rate                               : 23.976 (24000/1001/189150) FPS
  17. Color space                              : YUV
  18. Chroma subsampling                       : 4:2:0
  19. Bit depth                                : 8 bits
  20. Scan type                                : Progressive
  21. Bits/(Pixel*Frame)                       : 0.387
  22. Stream size                              : 11.2 GiB (80%)
  23. Writing library                          : x264 core 159 r2991 1771b55
  24. Encoding settings                        : cabac=1 / ref=5 / deblock=1:-3:-3 / analyse=0x3:0x133 / me=umh / subme=10 / psy=1 / psy_rd=1.00:0.15 / mixed_ref=1 / me_range=24 / chroma_me=1 / trellis=2 / 8x8dct=1 / cqm=0 / deadzone=21,11 / fast_pskip=1 / chroma_qp_offset=-3 / threads=18 / lookahead_threads=3 / sliced_threads=0 / nr=0 / decimate=1 / interlaced=0 / bluray_compat=0 / constrained_intra=0 / bframes=8 / b_pyramid=2 / b_adapt=2 / b_bias=0 / direct=3 / weightb=1 / open_gop=0 / weightp=2 / keyint=250 / keyint_min=23 / scenecut=40 / intra_refresh=0 / rc_lookahead=60 / rc=crf / mbtree=1 / crf=16.5 / qcomp=0.60 / qpmin=0 / qpmax=69 / qpstep=4 / ip_ratio=1.40 / aq=3:0.70
  25. Language                                 : English
  26. Default                                  : Yes
  27. Forced                                   : No
  28. Color range                              : Limited
  29. Matrix coefficients                      : BT.709

  30. Audio
  31. ID                                       : 2
  32. Format                                   : DTS XLL
  33. Format/Info                              : Digital Theater Systems
  34. Commercial name                          : DTS-HD Master Audio
  35. Codec ID                                 : A_DTS
  36. Duration                                 : 1 h 51 min
  37. Bit rate mode                            : Variable
  38. Bit rate                                 : 3 639 kb/s
  39. Channel(s)                               : 6 channels
  40. Channel layout                           : C L R Ls Rs LFE
  41. Sampling rate                            : 48.0 kHz
  42. Frame rate                               : 93.750 FPS (512 SPF)
  43. Bit depth                                : 24 bits
  44. Compression mode                         : Lossless
  45. Stream size                              : 2.84 GiB (20%)
  46. Language                                 : Italian
  47. Default                                  : Yes
  48. Forced                                   : No

  49. Text #1
  50. ID                                       : 3
  51. Format                                   : UTF-8
  52. Codec ID                                 : S_TEXT/UTF8
  53. Codec ID/Info                            : UTF-8 Plain Text
  54. Duration                                 : 1 h 42 min
  55. Bit rate                                 : 42 b/s
  56. Count of elements                        : 1400
  57. Stream size                              : 32.3 KiB (0%)
  58. Title                                    : English
  59. Language                                 : English
  60. Default                                  : Yes
  61. Forced                                   : Yes

  62. Text #2
  63. ID                                       : 4
  64. Format                                   : PGS
  65. Muxing mode                              : zlib
  66. Codec ID                                 : S_HDMV/PGS
  67. Codec ID/Info                            : Picture based subtitle format used on BDs/HD-DVDs
  68. Duration                                 : 1 h 42 min
  69. Bit rate                                 : 11.2 kb/s
  70. Count of elements                        : 2800
  71. Stream size                              : 8.26 MiB (0%)
  72. Title                                    : English
  73. Language                                 : English
  74. Default                                  : No
  75. Forced                                   : No

  76. Menu
  77. 00:00:00.000                             : en:00:00:00.000
  78. 00:04:38.570                             : en:00:04:38.570
  79. 00:12:31.250                             : en:00:12:31.250
  80. 00:19:53.818                             : en:00:19:53.818
  81. 00:28:50.103                             : en:00:28:50.103
  82. 00:35:19.284                             : en:00:35:19.284
  83. 00:45:41.489                             : en:00:45:41.489
  84. 00:54:48.118                             : en:00:54:48.118
  85. 01:02:59.943                             : en:01:02:59.943
  86. 01:13:07.717                             : en:01:13:07.717
  87. 01:24:24.309                             : en:01:24:24.309
  88. 01:32:57.197                             : en:01:32:57.197
  89. 01:41:50.146                             : en:01:41:50.146
  90. 01:46:36.849                             : en:01:46:36.849
复制代码

少年黑手党 Piranhas.2019.1080p.BluRay.x264-USURY 14.01GB-2.png







回复

使用道具 举报

蓝光币
640
发表于 2020-4-27 14:50:27 | 显示全部楼层
谢谢楼主无私分享。
回复 支持 反对

使用道具 举报

蓝光币
425
发表于 2020-4-27 21:23:34 | 显示全部楼层

楼主太厉害了!楼主,电影应该很好看我觉得蓝光电影网真是个好地方!
回复 支持 反对

使用道具 举报

蓝光币
378
发表于 2020-4-28 15:19:31 | 显示全部楼层

既然你诚信诚意的推荐了,那我就勉为其难的看看吧!蓝光电影网不走平凡路。
回复 支持 反对

使用道具 举报

蓝光币
16
发表于 2020-4-28 17:16:21 | 显示全部楼层
Thanks for sharing
回复 支持 反对

使用道具 举报

蓝光币
729
发表于 2020-4-28 23:01:25 | 显示全部楼层
谢谢楼主分享
回复 支持 反对

使用道具 举报

懒得打字嘛,点击右侧快捷回复 【右侧内容,后台自定义】
您需要登录后才可以回帖 登录 | 立即加入

本版积分规则

Archiver|小黑屋| 蓝光电影网 |网站地图

Copyright © 2021 Comsenz Inc. Powered by 蓝光电影网

蓝光电影网

本站内容由用户自主分享和转载自互联网,转载目的在于传递更多信息,并不代表本网赞同其观点和对其真实性负责。

如有侵权、违反国家法律政策行为,请联系我们,我们会第一时间及时清除和处理!

举报反馈邮箱:[email protected]

快速回复 返回顶部 返回列表