找回密码

蓝光电影网

查看: 145|回复: 0

[喜剧] 你是幸运的人 You.Lucky.People.1955.1080p.AMZN.WEBRip.DDP2.0.x264-QOQ 8.34GB

[复制链接]
蓝光币
515
发表于 2020-4-27 13:36:29 | 显示全部楼层 |阅读模式
MV5BNjAwNDY1ZWUtNzI2OS00YmVmLTliN2QtN2IwZDQ3NDc3ZWU3XkEyXkFqcGdeQXVyMjIyNjE2NA@@._V1_.jpg

译  名 你是荣幸的人
片  名 You Lucky People
年  代 1955
产  地 英国
类  别 笑剧
语  言 英语
上映日期 1955
IMDb评分  5.4/10 from 27 users
IMDb链接  https://www.imdb.com/title/tt0048821
豆瓣评分 0/10 from 0 users
豆瓣链接 https://movie.douban.com/subject/5061666/
片  长 79 分钟
导  演 Maurice Elvey
编  剧 Maurice Harrison
主  演 Tommy Trinder
       Mary Parker
       朵拉·布莱恩 Dora Bryan


标  签 英国 | 笑剧 | 1955英国电影 | 英国电影 | Maurice.Elvey | 1950s | 黑白 | 軍方

简  介  

  BW-你是荣幸的人 二战题材行动片的佼佼者 BFI全新修复版
  二战竣事后英国一系列二战题材行动片的佼佼者,BFI全新修复刊行。
  设置 独家英2区BFI全新修复典藏版+精译中笔墨幕+出色花絮
  You Lucky People (1955)
  导演: Maurice Elvey(《欢乐圣芳尼》)
  编剧: Maurice Harrison
  范例: 笑剧
  制片国家/地域: 英国
  IMDb链接: tt0048821
  二战竣事后,英国军队部分退伍的老兵被召集到练习营停止代号“Z”字的特别练习。负责练习的军士长是一个脸色严厉,要求严酷的军官。故事就此围绕军士长和他荣幸的学员而展开...
  1. Video
  2. ID                                       : 1
  3. Format                                   : AVC
  4. Format/Info                              : Advanced Video Codec
  5. Format profile                           : [email protected]
  6. Format settings                          : CABAC / 4 Ref Frames
  7. Format settings, CABAC                   : Yes
  8. Format settings, Reference frames        : 4 frames
  9. Codec ID                                 : V_MPEG4/ISO/AVC
  10. Duration                                 : 1 h 19 min
  11. Bit rate                                 : 14.8 Mb/s
  12. Width                                    : 1 920 pixels
  13. Height                                   : 816 pixels
  14. Display aspect ratio                     : 2.35:1
  15. Frame rate mode                          : Constant
  16. Frame rate                               : 23.976 (24000/1001/189150) FPS
  17. Color space                              : YUV
  18. Chroma subsampling                       : 4:2:0
  19. Bit depth                                : 8 bits
  20. Scan type                                : Progressive
  21. Bits/(Pixel*Frame)                       : 0.394
  22. Stream size                              : 8.21 GiB (98%)
  23. Default                                  : Yes
  24. Forced                                   : No
  25. Color range                              : Limited
  26. Color primaries                          : BT.709
  27. Transfer characteristics                 : BT.709
  28. Matrix coefficients                      : BT.709

  29. Audio
  30. ID                                       : 2
  31. Format                                   : E-AC-3
  32. Format/Info                              : Enhanced AC-3
  33. Commercial name                          : Dolby Digital Plus
  34. Codec ID                                 : A_EAC3
  35. Duration                                 : 1 h 19 min
  36. Bit rate mode                            : Constant
  37. Bit rate                                 : 224 kb/s
  38. Channel(s)                               : 2 channels
  39. Channel layout                           : L R
  40. Sampling rate                            : 48.0 kHz
  41. Frame rate                               : 31.250 FPS (1536 SPF)
  42. Compression mode                         : Lossy
  43. Stream size                              : 127 MiB (1%)
  44. Language                                 : English
  45. Service kind                             : Complete Main
  46. Default                                  : Yes
  47. Forced                                   : No

  48. Text #1
  49. ID                                       : 3
  50. Format                                   : UTF-8
  51. Codec ID                                 : S_TEXT/UTF8
  52. Codec ID/Info                            : UTF-8 Plain Text
  53. Duration                                 : 1 h 18 min
  54. Bit rate                                 : 104 b/s
  55. Count of elements                        : 1891
  56. Stream size                              : 60.1 KiB (0%)
  57. Language                                 : English
  58. Default                                  : No
  59. Forced                                   : No

  60. Text #2
  61. ID                                       : 4
  62. Format                                   : UTF-8
  63. Codec ID                                 : S_TEXT/UTF8
  64. Codec ID/Info                            : UTF-8 Plain Text
  65. Duration                                 : 1 h 18 min
  66. Bit rate                                 : 104 b/s
  67. Count of elements                        : 1891
  68. Stream size                              : 60.1 KiB (0%)
  69. Title                                    : SDH
  70. Language                                 : English
  71. Default                                  : No
  72. Forced                                   : No
复制代码

你是荣幸的人 You.Lucky.People.1955.1080p.AMZN.WEBRip.DDP2.0.x264-QOQ 8.34GB-1.png 你是荣幸的人 You.Lucky.People.1955.1080p.AMZN.WEBRip.DDP2.0.x264-QOQ 8.34GB-2.png 你是荣幸的人 You.Lucky.People.1955.1080p.AMZN.WEBRip.DDP2.0.x264-QOQ 8.34GB-3.png







回复

使用道具 举报

懒得打字嘛,点击右侧快捷回复 【右侧内容,后台自定义】
您需要登录后才可以回帖 登录 | 立即加入

本版积分规则

Archiver|小黑屋| 蓝光电影网 |网站地图

Copyright © 2021 Comsenz Inc. Powered by 蓝光电影网

蓝光电影网

本站内容由用户自主分享和转载自互联网,转载目的在于传递更多信息,并不代表本网赞同其观点和对其真实性负责。

如有侵权、违反国家法律政策行为,请联系我们,我们会第一时间及时清除和处理!

举报反馈邮箱:[email protected]

快速回复 返回顶部 返回列表