找回密码

蓝光电影网

查看: 165|回复: 0

[纪录] 洛城正宗/正宗LA LA.Originals.2020.1080p.NF.WEBRip.DDP5.1.x264-NOGRP 2.77GB

[复制链接]
蓝光币
511
发表于 2020-4-27 13:37:47 | 显示全部楼层 |阅读模式
洛城正宗/正宗LA LA.Originals.2020.1080p.NF.WEBRip.DDP5.1.x264-NOGRP 2.77GB-1.png

译  名 洛城正宗 / 正宗LA
片  名 L.A. Originals
年  代 2020
产  地 美国 / 阿根廷
类  别 记载片
语  言 英语
上映日期 2020-04-10(美国)
IMDb评分  7.4/10 from 806 users
IMDb链接  https://www.imdb.com/title/tt12027020
豆瓣评分 8.2/10 from 89 users
豆瓣链接 https://movie.douban.com/subject/35007418/
导  演 Estevan Oriol
编  剧 Brian Maya / Omar Quiroga
主  演 Estevan Oriol
       Mister Cartoon
       史努比狗狗 Snoop Dogg
       小克利夫顿·克林斯 Clifton Collins Jr.
       西奥·罗西 Theo Rossi
       Eric Haze
       Revok
       维尔摩·瓦尔德拉玛 Wilmer Valderrama
       乔治·洛佩兹 George Lopez
       特拉维斯·巴克 Travis Barker
       米歇尔·罗德里格兹 Michelle Rodriguez
       科比·布莱恩特 Kobe Bryant
       瑞恩·菲利普 Ryan Phillippe
       Tony Touch
       David Choe
       丽莉·克亚芙 Riley Keough
       埃米纳姆 Eminem
       泰瑞·克鲁斯 Terry Crews
       B-Real
       伊娃·朗格利亚 Eva Longoria
       马克·霍普斯 Mark Hoppus
       Larry Muggerud
       铁人 Erik Schrody
       斯科特·凯恩 Scott Caan
       Senen Reyes
       布莱恩·格雷泽 Brian Grazer
       丹尼·特雷霍 Danny Trejo
       保罗 Paul Rodriguez
       杰森·布伦 Jason Blum
       50分 50 Cent
       克里斯蒂娜·阿奎莱拉 Christina Aguilera
       杰西卡·阿尔芭 Jessica Alba
       亚当·高德斯坦 Adam Goldstein
       卡迪·B Cardi B
       埃里卡·巴杜 Erykah Badu
       查斯特·班宁顿 Chester Bennington
       碧昂丝·诺尔斯 Beyoncé Knowles
       大冯波 Big Boi
       Bizarre
       艾德里安·布洛迪 Adrien Brody
       乔什·布洛林 Josh Brolin
       乔伊·布赖恩特 Joy Bryant
       杰西卡·布尔西亚 Jessica Burciaga
       乔治·布什 George Bush
       乔治·W· 布什 George W. Bush
       Chuck D.
       安东尼·特雷奇·克里斯 Anthony 'Treach' Criss
       卡森·戴利 Carson Daly
       罗伯特·德尼罗 Robert De Niro
       托马斯·德朗格 Thomas DeLonge
       DJ Premier
       德瑞博士 Dr. Dre
       弗里德·德斯特 Fred Durst
       Flavor Flav
       约翰·弗拉西特 John Frusciante
       The Game
       唐纳德·格洛弗 Donald Glover
       席洛·格林 CeeLo Green
       马特·格罗宁 Matt Groening
       The Guru
       托尼·霍克 Tony Hawk
       塔拉吉·P·汉森 Taraji P. Henson
       丹尼斯·霍珀 Dennis Hopper
       艾斯·库珀 Ice Cube
       艾斯-T Ice-T


标  签 记载片 | Netflix | 美国 | 2020 | 陌头文化 | Chicano | 洛杉矶 | 音乐

简  介  

  网飞出品的记载片《正宗LA》公布预告。这部记载片的配角是文身师Mister Cartoon和摄影师、MV导演Estevan Oriol。也许这两人的名字对一般人不是那末如雷灌耳,但他们对美国嘻哈文化影响很是深远。预告片中出现的科比和埃米纳姆等大牌明星都曾找Mister Cartoon文身。而Estevan Oriol曾拍摄过罗伯特·德尼罗、阿尔·帕西诺等众多好莱坞明星。这部记载片将为你展现好莱坞分歧的一面。该片将于4月10日在网飞上线。
  1. Video
  2. ID                                       : 1
  3. Format                                   : AVC
  4. Format/Info                              : Advanced Video Codec
  5. Format profile                           : [email protected]
  6. Format settings                          : CABAC / 3 Ref Frames
  7. Format settings, CABAC                   : Yes
  8. Format settings, Reference frames        : 3 frames
  9. Codec ID                                 : V_MPEG4/ISO/AVC
  10. Duration                                 : 1 h 32 min
  11. Bit rate mode                            : Variable
  12. Bit rate                                 : 3 650 kb/s
  13. Maximum bit rate                         : 5 475 kb/s
  14. Width                                    : 1 920 pixels
  15. Height                                   : 1 080 pixels
  16. Display aspect ratio                     : 16:9
  17. Frame rate mode                          : Constant
  18. Frame rate                               : 23.976 (24000/1001/189150) FPS
  19. Color space                              : YUV
  20. Chroma subsampling                       : 4:2:0
  21. Bit depth                                : 8 bits
  22. Scan type                                : Progressive
  23. Bits/(Pixel*Frame)                       : 0.073
  24. Stream size                              : 2.35 GiB (85%)
  25. Writing library                          : x264 core 148 r2717 0d2410d
  26. Encoding settings                        : cabac=1 / ref=3 / deblock=1:0:0 / analyse=0x1:0x111 / me=umh / subme=10 / psy=1 / psy_rd=1.00:0.00 / mixed_ref=1 / me_range=24 / chroma_me=1 / trellis=2 / 8x8dct=0 / cqm=0 / deadzone=21,11 / fast_pskip=1 / chroma_qp_offset=-2 / threads=8 / lookahead_threads=1 / sliced_threads=0 / nr=0 / decimate=1 / interlaced=0 / bluray_compat=0 / stitchable=1 / constrained_intra=0 / bframes=2 / b_pyramid=0 / b_adapt=2 / b_bias=0 / direct=3 / weightb=1 / open_gop=0 / weightp=2 / keyint=250 / keyint_min=23 / scenecut=0 / intra_refresh=0 / rc_lookahead=48 / rc=2pass / mbtree=1 / bitrate=3650 / ratetol=1.0 / qcomp=0.50 / qpmin=6 / qpmax=51 / qpstep=4 / cplxblur=20.0 / qblur=0.5 / vbv_maxrate=5475 / vbv_bufsize=7300 / nal_hrd=vbr / filler=0 / ip_ratio=1.40 / aq=1:1.00
  27. Default                                  : Yes
  28. Forced                                   : No

  29. Audio
  30. ID                                       : 2
  31. Format                                   : E-AC-3
  32. Format/Info                              : Enhanced AC-3
  33. Commercial name                          : Dolby Digital Plus
  34. Codec ID                                 : A_EAC3
  35. Duration                                 : 1 h 32 min
  36. Bit rate mode                            : Constant
  37. Bit rate                                 : 640 kb/s
  38. Channel(s)                               : 6 channels
  39. Channel layout                           : L R C LFE Ls Rs
  40. Sampling rate                            : 48.0 kHz
  41. Frame rate                               : 31.250 FPS (1536 SPF)
  42. Compression mode                         : Lossy
  43. Stream size                              : 423 MiB (15%)
  44. Title                                    : English
  45. Language                                 : English
  46. Service kind                             : Complete Main
  47. Default                                  : Yes
  48. Forced                                   : No

  49. Text #1
  50. ID                                       : 3
  51. Format                                   : UTF-8
  52. Codec ID                                 : S_TEXT/UTF8
  53. Codec ID/Info                            : UTF-8 Plain Text
  54. Duration                                 : 1 h 32 min
  55. Bit rate                                 : 122 b/s
  56. Count of elements                        : 2074
  57. Stream size                              : 82.5 KiB (0%)
  58. Title                                    : English
  59. Language                                 : English
  60. Default                                  : No
  61. Forced                                   : No

  62. Text #2
  63. ID                                       : 4
  64. Format                                   : UTF-8
  65. Codec ID                                 : S_TEXT/UTF8
  66. Codec ID/Info                            : UTF-8 Plain Text
  67. Duration                                 : 1 min 9 s
  68. Bit rate                                 : 57 b/s
  69. Count of elements                        : 19
  70. Stream size                              : 502 Bytes (0%)
  71. Title                                    : Forced
  72. Language                                 : English
  73. Default                                  : No
  74. Forced                                   : Yes

  75. Text #3
  76. ID                                       : 5
  77. Format                                   : UTF-8
  78. Codec ID                                 : S_TEXT/UTF8
  79. Codec ID/Info                            : UTF-8 Plain Text
  80. Duration                                 : 1 h 32 min
  81. Bit rate                                 : 168 b/s
  82. Count of elements                        : 1589
  83. Stream size                              : 113 KiB (0%)
  84. Title                                    : Arabic
  85. Language                                 : Arabic
  86. Default                                  : No
  87. Forced                                   : No

  88. Text #4
  89. ID                                       : 6
  90. Format                                   : UTF-8
  91. Codec ID                                 : S_TEXT/UTF8
  92. Codec ID/Info                            : UTF-8 Plain Text
  93. Duration                                 : 1 h 32 min
  94. Bit rate                                 : 80 b/s
  95. Count of elements                        : 1539
  96. Stream size                              : 54.1 KiB (0%)
  97. Title                                    : Czech
  98. Language                                 : Czech
  99. Default                                  : No
  100. Forced                                   : No

  101. Text #5
  102. ID                                       : 7
  103. Format                                   : UTF-8
  104. Codec ID                                 : S_TEXT/UTF8
  105. Codec ID/Info                            : UTF-8 Plain Text
  106. Duration                                 : 1 h 32 min
  107. Bit rate                                 : 84 b/s
  108. Count of elements                        : 1393
  109. Stream size                              : 56.9 KiB (0%)
  110. Title                                    : Danish
  111. Language                                 : Danish
  112. Default                                  : No
  113. Forced                                   : No

  114. Text #6
  115. ID                                       : 8
  116. Format                                   : UTF-8
  117. Codec ID                                 : S_TEXT/UTF8
  118. Codec ID/Info                            : UTF-8 Plain Text
  119. Duration                                 : 1 h 32 min
  120. Bit rate                                 : 85 b/s
  121. Count of elements                        : 1485
  122. Stream size                              : 57.4 KiB (0%)
  123. Title                                    : German
  124. Language                                 : German
  125. Default                                  : No
  126. Forced                                   : No

  127. Text #7
  128. ID                                       : 9
  129. Format                                   : UTF-8
  130. Codec ID                                 : S_TEXT/UTF8
  131. Codec ID/Info                            : UTF-8 Plain Text
  132. Duration                                 : 1 h 32 min
  133. Bit rate                                 : 137 b/s
  134. Count of elements                        : 1568
  135. Stream size                              : 93.0 KiB (0%)
  136. Title                                    : Greek
  137. Language                                 : Greek
  138. Default                                  : No
  139. Forced                                   : No

  140. Text #8
  141. ID                                       : 10
  142. Format                                   : UTF-8
  143. Codec ID                                 : S_TEXT/UTF8
  144. Codec ID/Info                            : UTF-8 Plain Text
  145. Duration                                 : 1 h 28 min
  146. Bit rate                                 : 100 b/s
  147. Count of elements                        : 1764
  148. Stream size                              : 65.5 KiB (0%)
  149. Title                                    : Spanish
  150. Language                                 : Spanish
  151. Default                                  : No
  152. Forced                                   : No

  153. Text #9
  154. ID                                       : 11
  155. Format                                   : UTF-8
  156. Codec ID                                 : S_TEXT/UTF8
  157. Codec ID/Info                            : UTF-8 Plain Text
  158. Duration                                 : 1 h 32 min
  159. Bit rate                                 : 83 b/s
  160. Count of elements                        : 1530
  161. Stream size                              : 56.3 KiB (0%)
  162. Title                                    : European Spanish
  163. Language                                 : Spanish
  164. Default                                  : No
  165. Forced                                   : No

  166. Text #10
  167. ID                                       : 12
  168. Format                                   : UTF-8
  169. Codec ID                                 : S_TEXT/UTF8
  170. Codec ID/Info                            : UTF-8 Plain Text
  171. Duration                                 : 1 h 32 min
  172. Bit rate                                 : 75 b/s
  173. Count of elements                        : 1358
  174. Stream size                              : 51.2 KiB (0%)
  175. Title                                    : Finnish
  176. Language                                 : Finnish
  177. Default                                  : No
  178. Forced                                   : No

  179. Text #11
  180. ID                                       : 13
  181. Format                                   : UTF-8
  182. Codec ID                                 : S_TEXT/UTF8
  183. Codec ID/Info                            : UTF-8 Plain Text
  184. Duration                                 : 1 h 32 min
  185. Bit rate                                 : 97 b/s
  186. Count of elements                        : 1527
  187. Stream size                              : 65.8 KiB (0%)
  188. Title                                    : French
  189. Language                                 : French
  190. Default                                  : No
  191. Forced                                   : No

  192. Text #12
  193. ID                                       : 14
  194. Format                                   : UTF-8
  195. Codec ID                                 : S_TEXT/UTF8
  196. Codec ID/Info                            : UTF-8 Plain Text
  197. Duration                                 : 1 h 28 min
  198. Bit rate                                 : 151 b/s
  199. Count of elements                        : 1483
  200. Stream size                              : 98.7 KiB (0%)
  201. Title                                    : Hebrew
  202. Language                                 : Hebrew
  203. Default                                  : No
  204. Forced                                   : No

  205. Text #13
  206. ID                                       : 15
  207. Format                                   : UTF-8
  208. Codec ID                                 : S_TEXT/UTF8
  209. Codec ID/Info                            : UTF-8 Plain Text
  210. Duration                                 : 1 h 32 min
  211. Bit rate                                 : 83 b/s
  212. Count of elements                        : 1591
  213. Stream size                              : 56.0 KiB (0%)
  214. Title                                    : Hungarian
  215. Language                                 : Hungarian
  216. Default                                  : No
  217. Forced                                   : No

  218. Text #14
  219. ID                                       : 16
  220. Format                                   : UTF-8
  221. Codec ID                                 : S_TEXT/UTF8
  222. Codec ID/Info                            : UTF-8 Plain Text
  223. Duration                                 : 1 h 32 min
  224. Bit rate                                 : 89 b/s
  225. Count of elements                        : 1490
  226. Stream size                              : 60.1 KiB (0%)
  227. Title                                    : Indonesian
  228. Language                                 : Indonesian
  229. Default                                  : No
  230. Forced                                   : No

  231. Text #15
  232. ID                                       : 17
  233. Format                                   : UTF-8
  234. Codec ID                                 : S_TEXT/UTF8
  235. Codec ID/Info                            : UTF-8 Plain Text
  236. Duration                                 : 1 h 32 min
  237. Bit rate                                 : 89 b/s
  238. Count of elements                        : 1550
  239. Stream size                              : 60.1 KiB (0%)
  240. Title                                    : Italian
  241. Language                                 : Italian
  242. Default                                  : No
  243. Forced                                   : No

  244. Text #16
  245. ID                                       : 18
  246. Format                                   : UTF-8
  247. Codec ID                                 : S_TEXT/UTF8
  248. Codec ID/Info                            : UTF-8 Plain Text
  249. Duration                                 : 1 h 32 min
  250. Bit rate                                 : 93 b/s
  251. Count of elements                        : 1531
  252. Stream size                              : 63.1 KiB (0%)
  253. Title                                    : Japanese
  254. Language                                 : Japanese
  255. Default                                  : No
  256. Forced                                   : No

  257. Text #17
  258. ID                                       : 19
  259. Format                                   : UTF-8
  260. Codec ID                                 : S_TEXT/UTF8
  261. Codec ID/Info                            : UTF-8 Plain Text
  262. Duration                                 : 1 h 32 min
  263. Bit rate                                 : 114 b/s
  264. Count of elements                        : 1620
  265. Stream size                              : 77.0 KiB (0%)
  266. Title                                    : Korean
  267. Language                                 : Korean
  268. Default                                  : No
  269. Forced                                   : No

  270. Text #18
  271. ID                                       : 20
  272. Format                                   : UTF-8
  273. Codec ID                                 : S_TEXT/UTF8
  274. Codec ID/Info                            : UTF-8 Plain Text
  275. Duration                                 : 1 h 32 min
  276. Bit rate                                 : 84 b/s
  277. Count of elements                        : 1521
  278. Stream size                              : 57.1 KiB (0%)
  279. Title                                    : Norwegian
  280. Language                                 : Norwegian Bokmal
  281. Default                                  : No
  282. Forced                                   : No

  283. Text #19
  284. ID                                       : 21
  285. Format                                   : UTF-8
  286. Codec ID                                 : S_TEXT/UTF8
  287. Codec ID/Info                            : UTF-8 Plain Text
  288. Duration                                 : 1 h 32 min
  289. Bit rate                                 : 75 b/s
  290. Count of elements                        : 1274
  291. Stream size                              : 50.8 KiB (0%)
  292. Title                                    : Dutch
  293. Language                                 : Dutch
  294. Default                                  : No
  295. Forced                                   : No

  296. Text #20
  297. ID                                       : 22
  298. Format                                   : UTF-8
  299. Codec ID                                 : S_TEXT/UTF8
  300. Codec ID/Info                            : UTF-8 Plain Text
  301. Duration                                 : 1 h 32 min
  302. Bit rate                                 : 78 b/s
  303. Count of elements                        : 1446
  304. Stream size                              : 53.2 KiB (0%)
  305. Title                                    : Polish
  306. Language                                 : Polish
  307. Default                                  : No
  308. Forced                                   : No

  309. Text #21
  310. ID                                       : 23
  311. Format                                   : UTF-8
  312. Codec ID                                 : S_TEXT/UTF8
  313. Codec ID/Info                            : UTF-8 Plain Text
  314. Duration                                 : 1 h 32 min
  315. Bit rate                                 : 81 b/s
  316. Count of elements                        : 1530
  317. Stream size                              : 55.0 KiB (0%)
  318. Title                                    : Portuguese
  319. Language                                 : Portuguese
  320. Default                                  : No
  321. Forced                                   : No

  322. Text #22
  323. ID                                       : 24
  324. Format                                   : UTF-8
  325. Codec ID                                 : S_TEXT/UTF8
  326. Codec ID/Info                            : UTF-8 Plain Text
  327. Duration                                 : 1 h 28 min
  328. Bit rate                                 : 105 b/s
  329. Count of elements                        : 1759
  330. Stream size                              : 68.7 KiB (0%)
  331. Title                                    : Brazilian Portuguese
  332. Language                                 : Portuguese
  333. Default                                  : No
  334. Forced                                   : No

  335. Text #23
  336. ID                                       : 25
  337. Format                                   : UTF-8
  338. Codec ID                                 : S_TEXT/UTF8
  339. Codec ID/Info                            : UTF-8 Plain Text
  340. Duration                                 : 1 h 32 min
  341. Bit rate                                 : 91 b/s
  342. Count of elements                        : 1535
  343. Stream size                              : 61.4 KiB (0%)
  344. Title                                    : Romanian
  345. Language                                 : Romanian
  346. Default                                  : No
  347. Forced                                   : No

  348. Text #24
  349. ID                                       : 26
  350. Format                                   : UTF-8
  351. Codec ID                                 : S_TEXT/UTF8
  352. Codec ID/Info                            : UTF-8 Plain Text
  353. Duration                                 : 1 h 32 min
  354. Bit rate                                 : 152 b/s
  355. Count of elements                        : 1553
  356. Stream size                              : 103 KiB (0%)
  357. Title                                    : Russian
  358. Language                                 : Russian
  359. Default                                  : No
  360. Forced                                   : No

  361. Text #25
  362. ID                                       : 27
  363. Format                                   : UTF-8
  364. Codec ID                                 : S_TEXT/UTF8
  365. Codec ID/Info                            : UTF-8 Plain Text
  366. Duration                                 : 1 h 31 min
  367. Bit rate                                 : 77 b/s
  368. Count of elements                        : 1306
  369. Stream size                              : 51.9 KiB (0%)
  370. Title                                    : Swedish
  371. Language                                 : Swedish
  372. Default                                  : No
  373. Forced                                   : No

  374. Text #26
  375. ID                                       : 28
  376. Format                                   : UTF-8
  377. Codec ID                                 : S_TEXT/UTF8
  378. Codec ID/Info                            : UTF-8 Plain Text
  379. Duration                                 : 1 h 28 min
  380. Bit rate                                 : 237 b/s
  381. Count of elements                        : 1586
  382. Stream size                              : 154 KiB (0%)
  383. Title                                    : Thai
  384. Language                                 : Thai
  385. Default                                  : No
  386. Forced                                   : No

  387. Text #27
  388. ID                                       : 29
  389. Format                                   : UTF-8
  390. Codec ID                                 : S_TEXT/UTF8
  391. Codec ID/Info                            : UTF-8 Plain Text
  392. Duration                                 : 1 h 28 min
  393. Bit rate                                 : 96 b/s
  394. Count of elements                        : 1517
  395. Stream size                              : 62.8 KiB (0%)
  396. Title                                    : Turkish
  397. Language                                 : Turkish
  398. Default                                  : No
  399. Forced                                   : No

  400. Text #28
  401. ID                                       : 30
  402. Format                                   : UTF-8
  403. Codec ID                                 : S_TEXT/UTF8
  404. Codec ID/Info                            : UTF-8 Plain Text
  405. Duration                                 : 1 h 32 min
  406. Bit rate                                 : 120 b/s
  407. Count of elements                        : 1547
  408. Stream size                              : 81.6 KiB (0%)
  409. Title                                    : Vietnamese
  410. Language                                 : Vietnamese
  411. Default                                  : No
  412. Forced                                   : No

  413. Text #29
  414. ID                                       : 31
  415. Format                                   : UTF-8
  416. Codec ID                                 : S_TEXT/UTF8
  417. Codec ID/Info                            : UTF-8 Plain Text
  418. Duration                                 : 1 h 32 min
  419. Bit rate                                 : 98 b/s
  420. Count of elements                        : 1780
  421. Stream size                              : 66.1 KiB (0%)
  422. Title                                    : Simplified Chinese
  423. Language                                 : Chinese
  424. Default                                  : No
  425. Forced                                   : No

  426. Text #30
  427. ID                                       : 32
  428. Format                                   : UTF-8
  429. Codec ID                                 : S_TEXT/UTF8
  430. Codec ID/Info                            : UTF-8 Plain Text
  431. Duration                                 : 1 h 32 min
  432. Bit rate                                 : 92 b/s
  433. Count of elements                        : 1572
  434. Stream size                              : 62.3 KiB (0%)
  435. Title                                    : Traditional Chinese
  436. Language                                 : Chinese
  437. Default                                  : No
  438. Forced                                   : No
复制代码

洛城正宗/正宗LA LA.Originals.2020.1080p.NF.WEBRip.DDP5.1.x264-NOGRP 2.77GB-2.png 洛城正宗/正宗LA LA.Originals.2020.1080p.NF.WEBRip.DDP5.1.x264-NOGRP 2.77GB-3.png 洛城正宗/正宗LA LA.Originals.2020.1080p.NF.WEBRip.DDP5.1.x264-NOGRP 2.77GB-4.png






回复

使用道具 举报

懒得打字嘛,点击右侧快捷回复 【右侧内容,后台自定义】
您需要登录后才可以回帖 登录 | 立即加入

本版积分规则

Archiver|小黑屋| 蓝光电影网 |网站地图

Copyright © 2021 Comsenz Inc. Powered by 蓝光电影网

蓝光电影网

本站内容由用户自主分享和转载自互联网,转载目的在于传递更多信息,并不代表本网赞同其观点和对其真实性负责。

如有侵权、违反国家法律政策行为,请联系我们,我们会第一时间及时清除和处理!

举报反馈邮箱:[email protected]

快速回复 返回顶部 返回列表