找回密码

蓝光电影网

查看: 186|回复: 0

[剧情] 无休无止 No.End.1985.720p.BluRay.x264-GHOULS 6.95GB

[复制链接]
蓝光币
511
发表于 2020-4-28 20:12:09 | 显示全部楼层 |阅读模式
无休无止 No.End.1985.720p.BluRay.x264-GHOULS 6.95GB-1.png

译  名 无休无止 / No End / 不停之路(台) / 永无停止 / 永无尽头
片  名 Bez końca
年  代 1985
产  地 波兰
类  别 剧情
语  言 波兰语 / 英语
上映日期 1985-06-17(波兰)
IMDb评分  7.5/10 from 3687 users
IMDb链接  https://www.imdb.com/title/tt0086961
豆瓣评分 8.0/10 from 2487 users
豆瓣链接 https://movie.douban.com/subject/1293109/
片  长 109分钟
导  演 克日什托夫·基耶斯洛夫斯基 Krzysztof Kieslowski
编  剧 克日什托夫·基耶斯洛夫斯基 Krzysztof Kieslowski / 克日什托夫·皮耶谢维茨 Krzysztof Piesiewicz
主  演 格拉齐娜·扎波罗夫斯卡 Grazyna Szapolowska
       玛利亚·帕库尔尼斯 Maria Pakulnis
       亚历山大·巴尔迪尼 Aleksander Bardini
       杰吉·拉齐维洛维奇 Jerzy Radziwilowicz
       阿图尔·巴奇斯 Artur Barcis
       米哈尔·巴乔尔 Michal Bajor
       马雷克·孔德拉特 Marek Kondrat
       塔德乌什·布拉德基 Tadeusz Bradecki
       丹尼·韦伯 Danny Webb
       克日什托夫·库兹明斯基 Krzysztof Krzeminski
       马尔泽娜·泰巴拉 Marzena Trybala
       亚当·费仁希 Adam Ferency
       埃尔兹别塔·基拉斯卡 Elzbieta Kilarska
       杰兹·卡玛斯 Jerzy Kamas
       汉娜·杜诺夫斯卡 Hanna Dunowska
       扬·特萨利兹 Jan Tesarz
       安德烈·沙拉夫斯基 Andrzej Szalawski


标  签 波兰 | 1985 | 剧情 | 政治 | 恋爱 | 文艺 | 人生 | 法令

简  介  

  本片由几个初看起来并无关系的线索会聚而成:一个律师本应为因构造罢工而被捕的团结工会积极份子辩解,不幸于出庭前死去,案件交由一个老律师处置。老律师热衷与人争辩道德的可疑性题目。阿谁积极份子在各方面的重重压力下死去。同时,阿谁已故律师的妻子感应青春的虚空,沉溺于同其他汉子的爱欲当中,但精神的满足并不能取代精神的孤单,最初在失望中,她拧开煤气自杀。
  1. Video
  2. ID                                       : 1
  3. Format                                   : AVC
  4. Format/Info                              : Advanced Video Codec
  5. Format profile                           : [email protected]
  6. Format settings                          : CABAC / 9 Ref Frames
  7. Format settings, CABAC                   : Yes
  8. Format settings, Reference frames        : 9 frames
  9. Codec ID                                 : V_MPEG4/ISO/AVC
  10. Duration                                 : 1 h 48 min
  11. Bit rate                                 : 8 597 kb/s
  12. Width                                    : 1 196 pixels
  13. Height                                   : 720 pixels
  14. Display aspect ratio                     : 5:3
  15. Frame rate mode                          : Constant
  16. Frame rate                               : 23.976 (24000/1001/189150) FPS
  17. Color space                              : YUV
  18. Chroma subsampling                       : 4:2:0
  19. Bit depth                                : 8 bits
  20. Scan type                                : Progressive
  21. Bits/(Pixel*Frame)                       : 0.416
  22. Stream size                              : 6.49 GiB (93%)
  23. Writing library                          : x264 core 160 r3000 33f9e14
  24. Encoding settings                        : cabac=1 / ref=9 / deblock=1:-3:-3 / analyse=0x3:0x133 / me=umh / subme=10 / psy=1 / psy_rd=1.50:0.15 / mixed_ref=1 / me_range=24 / chroma_me=1 / trellis=2 / 8x8dct=1 / cqm=0 / deadzone=21,11 / fast_pskip=0 / chroma_qp_offset=-3 / threads=22 / lookahead_threads=3 / sliced_threads=0 / nr=0 / decimate=0 / interlaced=0 / bluray_compat=0 / constrained_intra=0 / bframes=8 / b_pyramid=2 / b_adapt=2 / b_bias=0 / direct=3 / weightb=1 / open_gop=0 / weightp=2 / keyint=250 / keyint_min=23 / scenecut=40 / intra_refresh=0 / rc=crf / mbtree=0 / crf=17.0 / qcomp=0.70 / qpmin=0 / qpmax=69 / qpstep=4 / ip_ratio=1.40 / pb_ratio=1.30 / aq=3:0.50
  25. Default                                  : Yes
  26. Forced                                   : No
  27. Color range                              : Limited
  28. Matrix coefficients                      : BT.709

  29. Audio
  30. ID                                       : 2
  31. Format                                   : FLAC
  32. Format/Info                              : Free Lossless Audio Codec
  33. Codec ID                                 : A_FLAC
  34. Duration                                 : 1 h 48 min
  35. Bit rate mode                            : Variable
  36. Bit rate                                 : 602 kb/s
  37. Channel(s)                               : 1 channel
  38. Channel layout                           : C
  39. Sampling rate                            : 48.0 kHz
  40. Frame rate                               : 10.417 FPS (4608 SPF)
  41. Bit depth                                : 24 bits
  42. Compression mode                         : Lossless
  43. Stream size                              : 465 MiB (7%)
  44. Writing library                          : Lavf58.29.100
  45. Language                                 : Polish
  46. Default                                  : Yes
  47. Forced                                   : No

  48. Text #1
  49. ID                                       : 3
  50. Format                                   : UTF-8
  51. Codec ID                                 : S_TEXT/UTF8
  52. Codec ID/Info                            : UTF-8 Plain Text
  53. Duration                                 : 1 h 43 min
  54. Bit rate                                 : 36 b/s
  55. Count of elements                        : 908
  56. Stream size                              : 27.8 KiB (0%)
  57. Title                                    : English (Forced)
  58. Language                                 : English
  59. Default                                  : Yes
  60. Forced                                   : Yes

  61. Text #2
  62. ID                                       : 4
  63. Format                                   : PGS
  64. Muxing mode                              : zlib
  65. Codec ID                                 : S_HDMV/PGS
  66. Codec ID/Info                            : Picture based subtitle format used on BDs/HD-DVDs
  67. Duration                                 : 1 h 43 min
  68. Bit rate                                 : 20.7 kb/s
  69. Count of elements                        : 1816
  70. Stream size                              : 15.3 MiB (0%)
  71. Language                                 : English
  72. Default                                  : No
  73. Forced                                   : No

  74. Menu
  75. 00:00:00.000                             : en:Chapter 01
  76. 00:07:24.361                             : en:Chapter 02
  77. 00:17:59.412                             : en:Chapter 03
  78. 00:26:23.624                             : en:Chapter 04
  79. 00:35:15.697                             : en:Chapter 05
  80. 00:46:06.973                             : en:Chapter 06
  81. 00:55:45.759                             : en:Chapter 07
  82. 01:04:16.394                             : en:Chapter 08
  83. 01:12:03.402                             : en:Chapter 09
  84. 01:21:16.121                             : en:Chapter 10
  85. 01:31:18.973                             : en:Chapter 11
  86. 01:41:11.732                             : en:Chapter 12
复制代码

无休无止 No.End.1985.720p.BluRay.x264-GHOULS 6.95GB-2.png







回复

使用道具 举报

懒得打字嘛,点击右侧快捷回复 【右侧内容,后台自定义】
您需要登录后才可以回帖 登录 | 立即加入

本版积分规则

Archiver|小黑屋| 蓝光电影网 |网站地图

Copyright © 2021 Comsenz Inc. Powered by 蓝光电影网

蓝光电影网

本站内容由用户自主分享和转载自互联网,转载目的在于传递更多信息,并不代表本网赞同其观点和对其真实性负责。

如有侵权、违反国家法律政策行为,请联系我们,我们会第一时间及时清除和处理!

举报反馈邮箱:[email protected]

快速回复 返回顶部 返回列表