找回密码

蓝光电影网

查看: 149|回复: 0

[剧情] 助理 The.Assistant.2019.1080p.WEB-DL.DD5.1.H264-FGT 3.07GB

[复制链接]
蓝光币
519
发表于 2020-4-28 20:23:32 | 显示全部楼层 |阅读模式
助理 The.Assistant.2019.1080p.WEB-DL.DD5.1.H264-FGT 3.07GB-1.png

译  名 助理
片  名 The Assistant
年  代 2019
产  地 美国
类  别 剧情
语  言 英语
上映日期 2019-08-30(特柳赖德电影节) / 2020-01-31(美国)
IMDb评分  6.5/10 from 920 users
IMDb链接  https://www.imdb.com/title/tt9000224
豆瓣评分 7.1/10 from 79 users
豆瓣链接 https://movie.douban.com/subject/30402843/
片  长 87分钟
导  演 基蒂·格林 Kitty Green
编  剧 基蒂·格林 Kitty Green
主  演 朱莉娅·加纳 Julia Garner
       马修·麦克费登 Matthew Macfadyen
       克里斯汀·弗劳赛斯 Kristine Froseth
       达格玛拉·多敏齐克 Dagmara Dominczyk
       麦肯兹·利 Makenzie Leigh
       诺亚·罗宾斯 Noah Robbins
       亚历山大·卓别林 Alexander Chaplin
       克拉拉·王 Clara Wong
       布莱克叶·埃南 Bregje Heinen
       普鲁瓦·贝迪 Purva Bedi
       德文·卡拉韦 Devon Caraway
       乔尼·奥尔西尼 Jon Orsini
       Juliana Canfield
       Lou Martini Jr.
       Stéphanye Dussud


标  签 美国 | 剧情 | 电影 | 美国电影 | 2020 | 女性 | 美國電影 | 纪实/列传

简  介  

  茱莉亚·加纳(《壁花少年》《陋规胜地》)商谈主演聚焦哈维·韦恩斯坦助理的未命名影片,由《童心无归处》导演Kitty Green和团队打造,这是一部非现实电影,聚焦韦恩斯坦一位助理人生中的一天。
  Green花了近一年时候收集大量材料,贮存对天天在韦恩斯坦安排下的工作情况中工作的雇员的信息。她暗示,观察的进程让她印象最深的是“韦恩斯坦长达30年的治理之反复和无聊——很多年轻人,特别是女性,怀着起头自己的职业生活的心态进到他的公司,而天天他们要在那样的情况下工作,这极为可骇”。
  1. Video
  2. ID                                       : 1
  3. Format                                   : AVC
  4. Format/Info                              : Advanced Video Codec
  5. Format profile                           : [email protected]
  6. Format settings                          : CABAC / 4 Ref Frames
  7. Format settings, CABAC                   : Yes
  8. Format settings, Reference frames        : 4 frames
  9. Codec ID                                 : V_MPEG4/ISO/AVC
  10. Duration                                 : 1 h 27 min
  11. Bit rate                                 : 4 625 kb/s
  12. Width                                    : 1 916 pixels
  13. Height                                   : 952 pixels
  14. Display aspect ratio                     : 2.013
  15. Frame rate mode                          : Constant
  16. Frame rate                               : 23.976 (23976/1000/189150) FPS
  17. Color space                              : YUV
  18. Chroma subsampling                       : 4:2:0
  19. Bit depth                                : 8 bits
  20. Scan type                                : Progressive
  21. Bits/(Pixel*Frame)                       : 0.106
  22. Stream size                              : 2.84 GiB (92%)
  23. Title                                    : The.Assistant.2019.1080p.WEB-DL.DD5.1.H264-FGT
  24. Language                                 : English
  25. Default                                  : Yes
  26. Forced                                   : No
  27. Color range                              : Limited
  28. Color primaries                          : BT.709
  29. Transfer characteristics                 : BT.709
  30. Matrix coefficients                      : BT.709

  31. Audio
  32. ID                                       : 2
  33. Format                                   : AC-3
  34. Format/Info                              : Audio Coding 3
  35. Commercial name                          : Dolby Digital
  36. Codec ID                                 : A_AC3
  37. Duration                                 : 1 h 27 min
  38. Bit rate mode                            : Constant
  39. Bit rate                                 : 384 kb/s
  40. Channel(s)                               : 6 channels
  41. Channel layout                           : L R C LFE Ls Rs
  42. Sampling rate                            : 48.0 kHz
  43. Frame rate                               : 31.250 FPS (1536 SPF)
  44. Bit depth                                : 16 bits
  45. Compression mode                         : Lossy
  46. Stream size                              : 241 MiB (8%)
  47. Title                                    : The.Assistant.2019.1080p.WEB-DL.DD5.1.H264-FGT
  48. Language                                 : English
  49. Service kind                             : Complete Main
  50. Default                                  : Yes
  51. Forced                                   : No

  52. Text #1
  53. ID                                       : 3
  54. Format                                   : UTF-8
  55. Codec ID                                 : S_TEXT/UTF8
  56. Codec ID/Info                            : UTF-8 Plain Text
  57. Duration                                 : 37 s 913 ms
  58. Bit rate                                 : 115 b/s
  59. Count of elements                        : 11
  60. Stream size                              : 549 Bytes (0%)
  61. Title                                    : FORCED
  62. Language                                 : English
  63. Default                                  : Yes
  64. Forced                                   : No

  65. Text #2
  66. ID                                       : 4
  67. Format                                   : UTF-8
  68. Codec ID                                 : S_TEXT/UTF8
  69. Codec ID/Info                            : UTF-8 Plain Text
  70. Duration                                 : 1 h 17 min
  71. Bit rate                                 : 40 b/s
  72. Count of elements                        : 710
  73. Stream size                              : 23.1 KiB (0%)
  74. Language                                 : English
  75. Default                                  : No
  76. Forced                                   : No

  77. Menu
  78. 00:00:00.000                             : en:1
  79. 00:03:35.674                             : en:2
  80. 00:07:19.981                             : en:3
  81. 00:11:41.784                             : en:4
  82. 00:15:30.345                             : en:5
  83. 00:18:52.547                             : en:6
  84. 00:23:01.671                             : en:7
  85. 00:26:17.575                             : en:8
  86. 00:29:27.514                             : en:9
  87. 00:34:42.871                             : en:10
  88. 00:38:12.247                             : en:11
  89. 00:40:52.781                             : en:12
  90. 00:44:56.733                             : en:13
  91. 00:47:22.879                             : en:14
  92. 00:58:08.940                             : en:15
  93. 01:02:57.561                             : en:16
  94. 01:08:16.212                             : en:17
  95. 01:13:09.797                             : en:18
  96. 01:17:10.204                             : en:19
  97. 01:21:45.187                             : en:20
复制代码

助理 The.Assistant.2019.1080p.WEB-DL.DD5.1.H264-FGT 3.07GB-2.png 助理 The.Assistant.2019.1080p.WEB-DL.DD5.1.H264-FGT 3.07GB-3.png 助理 The.Assistant.2019.1080p.WEB-DL.DD5.1.H264-FGT 3.07GB-4.png







回复

使用道具 举报

懒得打字嘛,点击右侧快捷回复 【右侧内容,后台自定义】
您需要登录后才可以回帖 登录 | 立即加入

本版积分规则

Archiver|小黑屋| 蓝光电影网 |网站地图

Copyright © 2021 Comsenz Inc. Powered by 蓝光电影网

蓝光电影网

本站内容由用户自主分享和转载自互联网,转载目的在于传递更多信息,并不代表本网赞同其观点和对其真实性负责。

如有侵权、违反国家法律政策行为,请联系我们,我们会第一时间及时清除和处理!

举报反馈邮箱:[email protected]

快速回复 返回顶部 返回列表