找回密码

蓝光电影网

查看: 231|回复: 0

[喜剧] 遗愿之旅 Braking.For.Whales.2019.1080p.WEB-DL.DD5.1.H264-FGT 4.05GB

[复制链接]
蓝光币
515
发表于 2020-4-28 20:42:02 | 显示全部楼层 |阅读模式
遗言之旅 Braking.For.Whales.2019.1080p.WEB-DL.DD5.1.H264-FGT 4.05GB-1.png

译  名 遗言之旅 / Whaling
片  名 Braking for Whales
年  代 2019
产  地 美国
类  别 笑剧
语  言 英语
上映日期 2019-09-20(波士顿电影节)
IMDb评分  5.1/10 from 58 users
IMDb链接  https://www.imdb.com/title/tt2305326
豆瓣评分 0/10 from 0 users
豆瓣链接 https://movie.douban.com/subject/25797312/
片  长 103分钟
导  演 Sean McEwen
编  剧 Sean McEwen / Tammin Sursok
主  演 Wendi McLendon-Covey
       汤姆·费尔顿 Tom Felton
       大卫·科恩查内 David Koechner
       塔姆茵·瑟斯沃克 Tammin Sursok
       奥斯汀·斯威夫特 Austin Swift
       Carrie Clifford
       Brent Mendenhall
       Brandon Doyle
       Jay Dee
       Addie Hoppers
       Corbin Tyler
       William Sturgeon
       Brian Hooper


简  介  

  明星和布兰登,冷淡的兄弟和妹妹,在母亲比来归天后,与她荒诞的最初要求,处置她的骨灰在鲸鱼的身材后,走到一路。没有挑选或面临落空他们急需的遗产 - 他们起头的公路观光圣安东尼奥,得克萨斯州,在那边他们不但碰到冒险,但也碰到对方。
  1. Video
  2. ID                                       : 1
  3. Format                                   : AVC
  4. Format/Info                              : Advanced Video Codec
  5. Format profile                           : [email protected]
  6. Format settings                          : CABAC / 4 Ref Frames
  7. Format settings, CABAC                   : Yes
  8. Format settings, Reference frames        : 4 frames
  9. Codec ID                                 : V_MPEG4/ISO/AVC
  10. Duration                                 : 1 h 43 min
  11. Bit rate                                 : 5 187 kb/s
  12. Width                                    : 1 912 pixels
  13. Height                                   : 1 072 pixels
  14. Display aspect ratio                     : 16:9
  15. Frame rate mode                          : Constant
  16. Frame rate                               : 23.976 (24000/1001/189150) FPS
  17. Color space                              : YUV
  18. Chroma subsampling                       : 4:2:0
  19. Bit depth                                : 8 bits
  20. Scan type                                : Progressive
  21. Bits/(Pixel*Frame)                       : 0.106
  22. Stream size                              : 3.77 GiB (93%)
  23. Title                                    : Braking.For.Whales.2019.1080p.WEB-DL.DD5.1.H264-FGT
  24. Language                                 : English
  25. Default                                  : Yes
  26. Forced                                   : No
  27. Color range                              : Limited
  28. Color primaries                          : BT.709
  29. Transfer characteristics                 : BT.709
  30. Matrix coefficients                      : BT.709

  31. Audio
  32. ID                                       : 2
  33. Format                                   : AC-3
  34. Format/Info                              : Audio Coding 3
  35. Commercial name                          : Dolby Digital
  36. Codec ID                                 : A_AC3
  37. Duration                                 : 1 h 43 min
  38. Bit rate mode                            : Constant
  39. Bit rate                                 : 384 kb/s
  40. Channel(s)                               : 6 channels
  41. Channel layout                           : L R C LFE Ls Rs
  42. Sampling rate                            : 48.0 kHz
  43. Frame rate                               : 31.250 FPS (1536 SPF)
  44. Bit depth                                : 16 bits
  45. Compression mode                         : Lossy
  46. Stream size                              : 285 MiB (7%)
  47. Title                                    : Braking.For.Whales.2019.1080p.WEB-DL.DD5.1.H264-FGT
  48. Language                                 : English
  49. Service kind                             : Complete Main
  50. Default                                  : Yes
  51. Forced                                   : No

  52. Text
  53. ID                                       : 3
  54. Format                                   : UTF-8
  55. Codec ID                                 : S_TEXT/UTF8
  56. Codec ID/Info                            : UTF-8 Plain Text
  57. Duration                                 : 1 h 42 min
  58. Bit rate                                 : 74 b/s
  59. Count of elements                        : 1543
  60. Stream size                              : 55.9 KiB (0%)
  61. Language                                 : English
  62. Default                                  : Yes
  63. Forced                                   : No

  64. Menu
  65. 00:00:00.000                             : en:Chapter 1
  66. 00:11:57.842                             : en:Chapter 2
  67. 00:21:11.728                             : en:Chapter 3
  68. 00:31:16.707                             : en:Chapter 4
  69. 00:45:27.766                             : en:Chapter 5
  70. 00:54:38.941                             : en:Chapter 6
  71. 01:05:48.193                             : en:Chapter 7
  72. 01:14:22.039                             : en:Chapter 8
  73. 01:24:35.109                             : en:Chapter 9
  74. 01:35:37.146                             : en:Chapter 10
  75. 01:40:36.987                             : en:Chapter 11
复制代码

遗言之旅 Braking.For.Whales.2019.1080p.WEB-DL.DD5.1.H264-FGT 4.05GB-2.png 遗言之旅 Braking.For.Whales.2019.1080p.WEB-DL.DD5.1.H264-FGT 4.05GB-3.png 遗言之旅 Braking.For.Whales.2019.1080p.WEB-DL.DD5.1.H264-FGT 4.05GB-4.png







回复

使用道具 举报

懒得打字嘛,点击右侧快捷回复 【右侧内容,后台自定义】
您需要登录后才可以回帖 登录 | 立即加入

本版积分规则

Archiver|小黑屋| 蓝光电影网 |网站地图

Copyright © 2021 Comsenz Inc. Powered by 蓝光电影网

蓝光电影网

本站内容由用户自主分享和转载自互联网,转载目的在于传递更多信息,并不代表本网赞同其观点和对其真实性负责。

如有侵权、违反国家法律政策行为,请联系我们,我们会第一时间及时清除和处理!

举报反馈邮箱:[email protected]

快速回复 返回顶部 返回列表