找回密码

蓝光电影网

查看: 303|回复: 1

[动作] 少林門 The.Hand.of.Death.1976.REMASTERED.720p.BluRay.x264-BiPOLAR 9.15GB

[复制链接]
蓝光币
515
发表于 2020-4-28 20:43:12 | 显示全部楼层 |阅读模式
少林門 The.Hand.of.Death.1976.REMASTERED.720p.BluRay.x264-BiPOLAR 9.15GB-1.png

译  名 少林门 / Countdown in Kung Fu / Hand of Death / The Hand of Death
片  名 少林門
年  代 1976
产  地 中国香港
类  别 行动
语  言 汉语普通话
上映日期 1976-07-15(中国香港)
IMDb评分  6.1/10 from 1275 users
IMDb链接  https://www.imdb.com/title/tt0073694
豆瓣评分 6.1/10 from 1267 users
豆瓣链接 https://movie.douban.com/subject/1293367/
片  长 95 分钟
导  演 吴宇森 John Woo
编  剧 吴宇森 John Woo
主  演 谭道良 Tao-liang Tan
       田俊 James Tien Chun
       成龙 Jackie Chan
       朱青 Ching Chu


标  签 吴宇森 | 成龙 | 行动 | 香港 | 洪金宝 | 香港电影 | 1976 | 功夫

简  介  

  少林寺数百年来宏扬大业,成长武功,曾为承平乱世立下不朽功勋。清廷为打压异己,控制群众,借助少林叛徒石少锋(田俊 饰)等人围攻少林,致使少林门生漂泊各地。少林大智禅师自得门生云飞(谭道良 饰)功夫学成,奉师命下山庇护反清义士并清算少林门户。云飞于路得谭小弟(成龙 饰)帮助混入石少锋地点白石镇。恰逢众义士搭救一少林子弟,不幸石少锋一伙早有预备,石之左膀右臂杜清(洪金宝 饰)将众义士杀伤无数。云飞接近杜清,冒充投靠石少锋一伙,不意被石看穿,身陷监仓,谭小弟再次出头将云飞救出。本来谭小弟之兄长正是被石少锋害死,二人决计协力诛杀石,随即约请因石少锋而失手害死自己心爱女子的剑术高手江南浪子加入己方……
  1. Video
  2. ID                                       : 1
  3. Format                                   : AVC
  4. Format/Info                              : Advanced Video Codec
  5. Format profile                           : [email protected]
  6. Format settings                          : CABAC / 12 Ref Frames
  7. Format settings, CABAC                   : Yes
  8. Format settings, Reference frames        : 12 frames
  9. Codec ID                                 : V_MPEG4/ISO/AVC
  10. Duration                                 : 1 h 37 min
  11. Bit rate                                 : 8 342 kb/s
  12. Width                                    : 1 280 pixels
  13. Height                                   : 536 pixels
  14. Display aspect ratio                     : 2.40:1
  15. Frame rate mode                          : Constant
  16. Frame rate                               : 23.976 (24000/1001/189150) FPS
  17. Color space                              : YUV
  18. Chroma subsampling                       : 4:2:0
  19. Bit depth                                : 8 bits
  20. Scan type                                : Progressive
  21. Bits/(Pixel*Frame)                       : 0.507
  22. Stream size                              : 5.66 GiB (62%)
  23. Writing library                          : x264 core 159 r2991 1771b55
  24. Encoding settings                        : cabac=1 / ref=12 / deblock=1:-3:-3 / analyse=0x3:0x133 / me=umh / subme=10 / psy=1 / psy_rd=1.00:0.15 / mixed_ref=1 / me_range=24 / chroma_me=1 / trellis=2 / 8x8dct=1 / cqm=0 / deadzone=21,11 / fast_pskip=1 / chroma_qp_offset=-3 / threads=17 / lookahead_threads=2 / sliced_threads=0 / nr=0 / decimate=1 / interlaced=0 / bluray_compat=0 / constrained_intra=0 / bframes=8 / b_pyramid=2 / b_adapt=2 / b_bias=0 / direct=3 / weightb=1 / open_gop=0 / weightp=2 / keyint=250 / keyint_min=23 / scenecut=40 / intra_refresh=0 / rc_lookahead=60 / rc=crf / mbtree=1 / crf=19.0 / qcomp=0.60 / qpmin=0 / qpmax=69 / qpstep=4 / ip_ratio=1.40 / aq=3:0.60
  25. Language                                 : English
  26. Default                                  : Yes
  27. Forced                                   : No
  28. Color range                              : Limited
  29. Matrix coefficients                      : BT.709

  30. Audio #1
  31. ID                                       : 2
  32. Format                                   : FLAC
  33. Format/Info                              : Free Lossless Audio Codec
  34. Codec ID                                 : A_FLAC
  35. Duration                                 : 1 h 37 min
  36. Bit rate mode                            : Variable
  37. Bit rate                                 : 346 kb/s
  38. Channel(s)                               : 1 channel
  39. Channel layout                           : C
  40. Sampling rate                            : 48.0 kHz
  41. Frame rate                               : 11.719 FPS (4096 SPF)
  42. Bit depth                                : 24 bits
  43. Compression mode                         : Lossless
  44. Stream size                              : 240 MiB (3%)
  45. Title                                    : Mandarin (Original Mono)
  46. Writing library                          : libFLAC 1.2.1 (UTC 2007-09-17)
  47. Language                                 : Chinese
  48. Default                                  : Yes
  49. Forced                                   : No

  50. Audio #2
  51. ID                                       : 3
  52. Format                                   : FLAC
  53. Format/Info                              : Free Lossless Audio Codec
  54. Codec ID                                 : A_FLAC
  55. Duration                                 : 1 h 37 min
  56. Bit rate mode                            : Variable
  57. Bit rate                                 : 1 307 kb/s
  58. Channel(s)                               : 2 channels
  59. Channel layout                           : L R
  60. Sampling rate                            : 48.0 kHz
  61. Frame rate                               : 11.719 FPS (4096 SPF)
  62. Bit depth                                : 24 bits
  63. Compression mode                         : Lossless
  64. Stream size                              : 908 MiB (10%)
  65. Title                                    : Mandarin (Remastered Stereo)
  66. Writing library                          : libFLAC 1.2.1 (UTC 2007-09-17)
  67. Language                                 : Chinese
  68. Default                                  : No
  69. Forced                                   : No

  70. Audio #3
  71. ID                                       : 4
  72. Format                                   : FLAC
  73. Format/Info                              : Free Lossless Audio Codec
  74. Codec ID                                 : A_FLAC
  75. Duration                                 : 1 h 37 min
  76. Bit rate mode                            : Variable
  77. Bit rate                                 : 1 368 kb/s
  78. Channel(s)                               : 2 channels
  79. Channel layout                           : L R
  80. Sampling rate                            : 48.0 kHz
  81. Frame rate                               : 11.719 FPS (4096 SPF)
  82. Bit depth                                : 24 bits
  83. Compression mode                         : Lossless
  84. Stream size                              : 950 MiB (10%)
  85. Title                                    : Cantonese
  86. Writing library                          : libFLAC 1.2.1 (UTC 2007-09-17)
  87. Language                                 : Chinese
  88. Default                                  : No
  89. Forced                                   : No

  90. Audio #4
  91. ID                                       : 5
  92. Format                                   : FLAC
  93. Format/Info                              : Free Lossless Audio Codec
  94. Codec ID                                 : A_FLAC
  95. Duration                                 : 1 h 37 min
  96. Bit rate mode                            : Variable
  97. Bit rate                                 : 652 kb/s
  98. Channel(s)                               : 1 channel
  99. Channel layout                           : C
  100. Sampling rate                            : 48.0 kHz
  101. Frame rate                               : 11.719 FPS (4096 SPF)
  102. Bit depth                                : 24 bits
  103. Compression mode                         : Lossless
  104. Stream size                              : 453 MiB (5%)
  105. Title                                    : English (Original Dub)
  106. Writing library                          : libFLAC 1.2.1 (UTC 2007-09-17)
  107. Language                                 : English
  108. Default                                  : No
  109. Forced                                   : No

  110. Audio #5
  111. ID                                       : 6
  112. Format                                   : FLAC
  113. Format/Info                              : Free Lossless Audio Codec
  114. Codec ID                                 : A_FLAC
  115. Duration                                 : 1 h 37 min
  116. Bit rate mode                            : Variable
  117. Bit rate                                 : 1 365 kb/s
  118. Channel(s)                               : 2 channels
  119. Channel layout                           : L R
  120. Sampling rate                            : 48.0 kHz
  121. Frame rate                               : 11.719 FPS (4096 SPF)
  122. Bit depth                                : 24 bits
  123. Compression mode                         : Lossless
  124. Stream size                              : 948 MiB (10%)
  125. Title                                    : English (New Dub)
  126. Writing library                          : libFLAC 1.2.1 (UTC 2007-09-17)
  127. Default                                  : No
  128. Forced                                   : No

  129. Audio #6
  130. ID                                       : 7
  131. Format                                   : AAC LC
  132. Format/Info                              : Advanced Audio Codec Low Complexity
  133. Codec ID                                 : A_AAC-2
  134. Duration                                 : 1 h 37 min
  135. Bit rate                                 : 96.0 kb/s
  136. Channel(s)                               : 2 channels
  137. Channel layout                           : L R
  138. Sampling rate                            : 48.0 kHz
  139. Frame rate                               : 46.875 FPS (1024 SPF)
  140. Compression mode                         : Lossy
  141. Delay relative to video                  : 9 ms
  142. Stream size                              : 65.6 MiB (1%)
  143. Title                                    : English Commentary by Mike Leeder
  144. Language                                 : English
  145. Default                                  : No
  146. Forced                                   : No

  147. Text #1
  148. ID                                       : 8
  149. Format                                   : UTF-8
  150. Codec ID                                 : S_TEXT/UTF8
  151. Codec ID/Info                            : UTF-8 Plain Text
  152. Duration                                 : 1 h 29 min
  153. Bit rate                                 : 35 b/s
  154. Count of elements                        : 526
  155. Stream size                              : 23.1 KiB (0%)
  156. Title                                    : English
  157. Language                                 : English
  158. Default                                  : Yes
  159. Forced                                   : Yes

  160. Text #2
  161. ID                                       : 9
  162. Format                                   : PGS
  163. Muxing mode                              : zlib
  164. Codec ID                                 : S_HDMV/PGS
  165. Codec ID/Info                            : Picture based subtitle format used on BDs/HD-DVDs
  166. Duration                                 : 1 h 29 min
  167. Bit rate                                 : 7 109 b/s
  168. Count of elements                        : 1052
  169. Stream size                              : 4.56 MiB (0%)
  170. Title                                    : English
  171. Language                                 : English
  172. Default                                  : No
  173. Forced                                   : No

  174. Text #3
  175. ID                                       : 10
  176. Format                                   : UTF-8
  177. Codec ID                                 : S_TEXT/UTF8
  178. Codec ID/Info                            : UTF-8 Plain Text
  179. Duration                                 : 1 h 29 min
  180. Bit rate                                 : 35 b/s
  181. Count of elements                        : 522
  182. Stream size                              : 23.0 KiB (0%)
  183. Title                                    : English (for Cantonese dub)
  184. Language                                 : English
  185. Default                                  : No
  186. Forced                                   : No

  187. Text #4
  188. ID                                       : 11
  189. Format                                   : PGS
  190. Muxing mode                              : zlib
  191. Codec ID                                 : S_HDMV/PGS
  192. Codec ID/Info                            : Picture based subtitle format used on BDs/HD-DVDs
  193. Duration                                 : 1 h 29 min
  194. Bit rate                                 : 7 085 b/s
  195. Count of elements                        : 1044
  196. Stream size                              : 4.54 MiB (0%)
  197. Title                                    : English (for Cantonese dub)
  198. Language                                 : English
  199. Default                                  : No
  200. Forced                                   : No

  201. Menu
  202. 00:00:00.000                             : en:00:00:00.000
  203. 00:10:30.547                             : en:00:10:30.547
  204. 00:19:24.038                             : en:00:19:24.038
  205. 00:26:33.342                             : en:00:26:33.342
  206. 00:35:10.275                             : en:00:35:10.275
  207. 00:43:30.066                             : en:00:43:30.066
  208. 00:51:07.773                             : en:00:51:07.773
  209. 00:55:59.940                             : en:00:55:59.940
  210. 01:06:17.765                             : en:01:06:17.765
  211. 01:11:12.101                             : en:01:11:12.101
  212. 01:16:55.361                             : en:01:16:55.361
  213. 01:29:06.466                             : en:01:29:06.466
复制代码

少林門 The.Hand.of.Death.1976.REMASTERED.720p.BluRay.x264-BiPOLAR 9.15GB-2.png







回复

使用道具 举报

懒得打字嘛,点击右侧快捷回复 【右侧内容,后台自定义】
您需要登录后才可以回帖 登录 | 立即加入

本版积分规则

Archiver|小黑屋| 蓝光电影网 |网站地图

Copyright © 2021 Comsenz Inc. Powered by 蓝光电影网

蓝光电影网

本站内容由用户自主分享和转载自互联网,转载目的在于传递更多信息,并不代表本网赞同其观点和对其真实性负责。

如有侵权、违反国家法律政策行为,请联系我们,我们会第一时间及时清除和处理!

举报反馈邮箱:[email protected]

快速回复 返回顶部 返回列表