找回密码

蓝光电影网

查看: 379|回复: 2

[剧情] 格蕾特和韩塞尔 Gretel.and.Hansel.2020.1080p.BluRay.REMUX.AVC.DTS-HD.MA.5.1-FGT 24.02GB

[复制链接]
蓝光币
515
发表于 2020-4-28 21:08:53 | 显示全部楼层 |阅读模式
格蕾特和韩塞尔 Gretel.and.Hansel.2020.1080p.BluRay.REMUX.AVC.DTS-HD.MA.5.1-FGT 24.02GB-1.png

译  名 格蕾特和韩塞尔 / Gretel and Hansel / 战栗糖果屋(台) / 糖果屋 / 韩赛尔与格蕾特
片  名 Gretel & Hansel
年  代 2020
产  地 加拿大 / 爱尔兰 / 美国 / 南非
类  别 惊悚 / 可骇 / 奇异
语  言 英语
上映日期 2020-01-31(美国)
IMDb评分  5.3/10 from 10235 users
IMDb链接  https://www.imdb.com/title/tt9086228
豆瓣评分 5.3/10 from 740 users
豆瓣链接 https://movie.douban.com/subject/34807058/
片  长 87分钟
导  演 奥兹·珀金斯 Oz Perkins
编  剧 罗布·海斯 Rob Hayes
主  演 索菲娅·莉莉丝 Sophia Lillis
       艾丽丝·克里奇 Alice Krige
       杰西卡·德·古维 Jessica De Gouw
       查尔斯·巴巴洛拉 Charles Babalola
       塞缪尔·利基 Samuel Leakey
       伊安·肯尼 Ian Kenny
       阿卜杜勒·阿尔沙瑞夫 Abdul Alshareef
       曼纽尔·庞波 Manuel Pombo
       贝娅特丽克斯·帕金斯 Beatrix Perkins


标  签 可骇 | 奇异 | 惊悚 | 2020 | 美国 | 魔幻 | 黑色童话 | 超现实

简  介  

  描写葛丽特与汉赛尔被抛弃在黑森林中,试图找寻食品,却误入女巫预备丰厚佳肴的屋子。
  故事发生在很久很久之前,在一个悠远的村落,女孩葛丽特(索菲娅·莉莉丝 饰)带着弟弟韩赛尔进入一片阴暗密林,温饱交迫的两人原本希望可以在这里找到食品和工作,却遇上了使人恐惧的邪恶存在……
  1. Video
  2. ID                                       : 1
  3. Format                                   : AVC
  4. Format/Info                              : Advanced Video Codec
  5. Format profile                           : [email protected]
  6. Format settings                          : CABAC / 4 Ref Frames
  7. Format settings, CABAC                   : Yes
  8. Format settings, Reference frames        : 4 frames
  9. Codec ID                                 : V_MPEG4/ISO/AVC
  10. Duration                                 : 1 h 27 min
  11. Bit rate mode                            : Variable
  12. Bit rate                                 : 35.0 Mb/s
  13. Maximum bit rate                         : 38.0 Mb/s
  14. Width                                    : 1 920 pixels
  15. Height                                   : 1 080 pixels
  16. Display aspect ratio                     : 16:9
  17. Frame rate mode                          : Constant
  18. Frame rate                               : 23.976 (24000/1001/189150) FPS
  19. Color space                              : YUV
  20. Chroma subsampling                       : 4:2:0
  21. Bit depth                                : 8 bits
  22. Scan type                                : Progressive
  23. Bits/(Pixel*Frame)                       : 0.704
  24. Stream size                              : 21.3 GiB (89%)
  25. Title                                    : Gretel.and.Hansel.2020.1080p.BluRay.REMUX.AVC.DTS-HD.MA.5.1-FGT
  26. Language                                 : English
  27. Default                                  : No
  28. Forced                                   : No

  29. Audio #1
  30. ID                                       : 2
  31. Format                                   : DTS XLL
  32. Format/Info                              : Digital Theater Systems
  33. Commercial name                          : DTS-HD Master Audio
  34. Codec ID                                 : A_DTS
  35. Duration                                 : 1 h 27 min
  36. Bit rate mode                            : Variable
  37. Bit rate                                 : 3 100 kb/s
  38. Channel(s)                               : 6 channels
  39. Channel layout                           : C L R Ls Rs LFE
  40. Sampling rate                            : 48.0 kHz
  41. Frame rate                               : 93.750 FPS (512 SPF)
  42. Bit depth                                : 24 bits
  43. Compression mode                         : Lossless
  44. Stream size                              : 1.89 GiB (8%)
  45. Title                                    : Gretel.and.Hansel.2020.1080p.BluRay.REMUX.AVC.DTS-HD.MA.5.1-FGT
  46. Language                                 : English
  47. Default                                  : Yes
  48. Forced                                   : No

  49. Audio #2
  50. ID                                       : 3
  51. Format                                   : AC-3
  52. Format/Info                              : Audio Coding 3
  53. Commercial name                          : Dolby Digital
  54. Codec ID                                 : A_AC3
  55. Duration                                 : 1 h 27 min
  56. Bit rate mode                            : Constant
  57. Bit rate                                 : 640 kb/s
  58. Channel(s)                               : 6 channels
  59. Channel layout                           : L R C LFE Ls Rs
  60. Sampling rate                            : 48.0 kHz
  61. Frame rate                               : 31.250 FPS (1536 SPF)
  62. Bit depth                                : 16 bits
  63. Compression mode                         : Lossy
  64. Stream size                              : 400 MiB (2%)
  65. Title                                    : Gretel.and.Hansel.2020.1080p.BluRay.REMUX.AVC.DTS-HD.MA.5.1-FGT
  66. Language                                 : English
  67. Service kind                             : Complete Main
  68. Default                                  : No
  69. Forced                                   : No

  70. Audio #3
  71. ID                                       : 4
  72. Format                                   : AC-3
  73. Format/Info                              : Audio Coding 3
  74. Commercial name                          : Dolby Digital
  75. Codec ID                                 : A_AC3
  76. Duration                                 : 1 h 27 min
  77. Bit rate mode                            : Constant
  78. Bit rate                                 : 640 kb/s
  79. Channel(s)                               : 6 channels
  80. Channel layout                           : L R C LFE Ls Rs
  81. Sampling rate                            : 48.0 kHz
  82. Frame rate                               : 31.250 FPS (1536 SPF)
  83. Bit depth                                : 16 bits
  84. Compression mode                         : Lossy
  85. Stream size                              : 400 MiB (2%)
  86. Title                                    : Gretel.and.Hansel.2020.1080p.BluRay.REMUX.AVC.DTS-HD.MA.5.1-FGT
  87. Language                                 : Spanish
  88. Service kind                             : Complete Main
  89. Default                                  : No
  90. Forced                                   : No

  91. Text #1
  92. ID                                       : 5
  93. Format                                   : UTF-8
  94. Codec ID                                 : S_TEXT/UTF8
  95. Codec ID/Info                            : UTF-8 Plain Text
  96. Duration                                 : 1 h 21 min
  97. Bit rate                                 : 41 b/s
  98. Count of elements                        : 815
  99. Stream size                              : 24.6 KiB (0%)
  100. Title                                    : English-SRT
  101. Language                                 : English
  102. Default                                  : Yes
  103. Forced                                   : No

  104. Text #2
  105. ID                                       : 6
  106. Format                                   : PGS
  107. Muxing mode                              : zlib
  108. Codec ID                                 : S_HDMV/PGS
  109. Codec ID/Info                            : Picture based subtitle format used on BDs/HD-DVDs
  110. Duration                                 : 1 h 21 min
  111. Bit rate                                 : 26.3 kb/s
  112. Count of elements                        : 1464
  113. Stream size                              : 15.4 MiB (0%)
  114. Title                                    : English-PGS
  115. Language                                 : English
  116. Default                                  : No
  117. Forced                                   : No

  118. Text #3
  119. ID                                       : 7
  120. Format                                   : PGS
  121. Muxing mode                              : zlib
  122. Codec ID                                 : S_HDMV/PGS
  123. Codec ID/Info                            : Picture based subtitle format used on BDs/HD-DVDs
  124. Duration                                 : 1 h 26 min
  125. Bit rate                                 : 22.0 kb/s
  126. Count of elements                        : 1496
  127. Stream size                              : 13.6 MiB (0%)
  128. Title                                    : Spanish-PGS
  129. Language                                 : Spanish
  130. Default                                  : No
  131. Forced                                   : No

  132. Menu
  133. 00:00:00.000                             : en:Chapter 01
  134. 00:09:17.139                             : en:Chapter 02
  135. 00:18:36.198                             : en:Chapter 03
  136. 00:28:10.063                             : en:Chapter 04
  137. 00:36:36.068                             : en:Chapter 05
  138. 00:44:25.454                             : en:Chapter 06
  139. 00:54:17.837                             : en:Chapter 07
  140. 01:04:07.468                             : en:Chapter 08
  141. 01:12:41.982                             : en:Chapter 09
  142. 01:22:14.971                             : en:Chapter 10
复制代码

格蕾特和韩塞尔 Gretel.and.Hansel.2020.1080p.BluRay.REMUX.AVC.DTS-HD.MA.5.1-FGT 24.02GB-2.png 格蕾特和韩塞尔 Gretel.and.Hansel.2020.1080p.BluRay.REMUX.AVC.DTS-HD.MA.5.1-FGT 24.02GB-3.png 格蕾特和韩塞尔 Gretel.and.Hansel.2020.1080p.BluRay.REMUX.AVC.DTS-HD.MA.5.1-FGT 24.02GB-4.png







回复

使用道具 举报

懒得打字嘛,点击右侧快捷回复 【右侧内容,后台自定义】
您需要登录后才可以回帖 登录 | 立即加入

本版积分规则

Archiver|小黑屋| 蓝光电影网 |网站地图

Copyright © 2021 Comsenz Inc. Powered by 蓝光电影网

蓝光电影网

本站内容由用户自主分享和转载自互联网,转载目的在于传递更多信息,并不代表本网赞同其观点和对其真实性负责。

如有侵权、违反国家法律政策行为,请联系我们,我们会第一时间及时清除和处理!

举报反馈邮箱:[email protected]

快速回复 返回顶部 返回列表