找回密码

蓝光电影网

查看: 186|回复: 0

[动画] 乐高DC沙赞:魔法与怪物 Lego.DC.Shazam.Magic.And.Monsters.2020.1080p.WEB-DL.DD5.1.H264-FGT 3.14GB

[复制链接]
蓝光币
519
发表于 2020-4-28 23:13:24 | 显示全部楼层 |阅读模式
乐高DC沙赞:魔法与怪物 Lego.DC.Shazam.Magic.And.Monsters.2020.1080p.WEB-DL.DD5.1.H264-FGT 3.14GB-1.png

译  名 乐高DC沙赞:魔法与怪物
片  名 LEGO DC Shazam!: Magic and Monsters
年  代 2020
产  地 美国
语  言 英语
IMDb链接  https://www.imdb.com/title/tt12093878
豆瓣评分 0/10 from 0 users
豆瓣链接 https://movie.douban.com/subject/35030774/
主  演 Sean Astin
       Troy Baker
       Nolan North
       Gray Griffin
       Christina Milizia
       James Arnold Taylor


标  签 DC | 超级豪杰 | 美国 | 动画

简  介  

  暂无相关剧情先容
  1. Video
  2. ID                                       : 1
  3. Format                                   : AVC
  4. Format/Info                              : Advanced Video Codec
  5. Format profile                           : [email protected]
  6. Format settings                          : CABAC / 4 Ref Frames
  7. Format settings, CABAC                   : Yes
  8. Format settings, Reference frames        : 4 frames
  9. Codec ID                                 : V_MPEG4/ISO/AVC
  10. Duration                                 : 1 h 21 min
  11. Bit rate                                 : 5 134 kb/s
  12. Width                                    : 1 920 pixels
  13. Height                                   : 1 078 pixels
  14. Display aspect ratio                     : 16:9
  15. Frame rate mode                          : Constant
  16. Frame rate                               : 23.976 (24000/1001/189150) FPS
  17. Color space                              : YUV
  18. Chroma subsampling                       : 4:2:0
  19. Bit depth                                : 8 bits
  20. Scan type                                : Progressive
  21. Bits/(Pixel*Frame)                       : 0.103
  22. Stream size                              : 2.92 GiB (93%)
  23. Title                                    : Lego.DC.Shazam.Magic.And.Monsters.2020.1080p.WEB-DL.DD5.1.H264-FGT
  24. Language                                 : English
  25. Default                                  : Yes
  26. Forced                                   : No
  27. Color range                              : Limited
  28. Color primaries                          : BT.709
  29. Transfer characteristics                 : BT.709
  30. Matrix coefficients                      : BT.709

  31. Audio
  32. ID                                       : 2
  33. Format                                   : AC-3
  34. Format/Info                              : Audio Coding 3
  35. Commercial name                          : Dolby Digital
  36. Codec ID                                 : A_AC3
  37. Duration                                 : 1 h 21 min
  38. Bit rate mode                            : Constant
  39. Bit rate                                 : 384 kb/s
  40. Channel(s)                               : 6 channels
  41. Channel layout                           : L R C LFE Ls Rs
  42. Sampling rate                            : 48.0 kHz
  43. Frame rate                               : 31.250 FPS (1536 SPF)
  44. Bit depth                                : 16 bits
  45. Compression mode                         : Lossy
  46. Stream size                              : 223 MiB (7%)
  47. Title                                    : Lego.DC.Shazam.Magic.And.Monsters.2020.1080p.WEB-DL.DD5.1.H264-FGT
  48. Language                                 : English
  49. Service kind                             : Complete Main
  50. Default                                  : Yes
  51. Forced                                   : No

  52. Text
  53. ID                                       : 3
  54. Format                                   : UTF-8
  55. Codec ID                                 : S_TEXT/UTF8
  56. Codec ID/Info                            : UTF-8 Plain Text
  57. Duration                                 : 1 h 18 min
  58. Bit rate                                 : 66 b/s
  59. Count of elements                        : 1356
  60. Stream size                              : 38.0 KiB (0%)
  61. Language                                 : English
  62. Default                                  : Yes
  63. Forced                                   : No

  64. Menu
  65. 00:00:00.000                             : en:1
  66. 00:08:35.222                             : en:2
  67. 00:17:29.714                             : en:3
  68. 00:27:37.154                             : en:4
  69. 00:36:30.019                             : en:5
  70. 00:44:24.535                             : en:6
  71. 00:51:20.784                             : en:7
  72. 00:57:23.563                             : en:8
  73. 01:04:08.050                             : en:9
  74. 01:13:57.347                             : en:10
  75. 01:18:53.518                             : en:11
复制代码

乐高DC沙赞:魔法与怪物 Lego.DC.Shazam.Magic.And.Monsters.2020.1080p.WEB-DL.DD5.1.H264-FGT 3.14GB-2.png 乐高DC沙赞:魔法与怪物 Lego.DC.Shazam.Magic.And.Monsters.2020.1080p.WEB-DL.DD5.1.H264-FGT 3.14GB-3.png 乐高DC沙赞:魔法与怪物 Lego.DC.Shazam.Magic.And.Monsters.2020.1080p.WEB-DL.DD5.1.H264-FGT 3.14GB-4.png







回复

使用道具 举报

懒得打字嘛,点击右侧快捷回复 【右侧内容,后台自定义】
您需要登录后才可以回帖 登录 | 立即加入

本版积分规则

Archiver|小黑屋| 蓝光电影网 |网站地图

Copyright © 2021 Comsenz Inc. Powered by 蓝光电影网

蓝光电影网

本站内容由用户自主分享和转载自互联网,转载目的在于传递更多信息,并不代表本网赞同其观点和对其真实性负责。

如有侵权、违反国家法律政策行为,请联系我们,我们会第一时间及时清除和处理!

举报反馈邮箱:[email protected]hotmail.com

快速回复 返回顶部 返回列表