找回密码

蓝光电影网

查看: 313|回复: 1

[惊悚] 残忍的心 Cruel.Hearts.2018.1080p.BluRay.x264.DTS-CHD 8.82GB

[复制链接]
蓝光币
519
发表于 2020-4-28 23:19:11 | 显示全部楼层 |阅读模式
残暴的心 Cruel.Hearts.2018.1080p.BluRay.x264.DTS-CHD 8.82GB-1.png

译  名 残暴的心
片  名 Cruel Hearts
年  代 2018
产  地 美国
类  别 惊悚
语  言 英语
上映日期 2018-11-10(Twin Cities Film Festival)
IMDb评分  5.8/10 from 98 users
IMDb链接  https://www.imdb.com/title/tt5031388
豆瓣评分 0/10 from 0 users
豆瓣链接 https://movie.douban.com/subject/34966335/
片  长 86分钟
导  演 Paul Osborne
编  剧 Paul Osborne
主  演 梅罗拉·哈丁 Melora Hardin
       埃迪·杰米森 Eddie Jemison
       邦尼·鲁特 Bonnie Root


标  签 [歐美]

简  介  

  A young man, Guy, discovers the woman he's been sleeping with is not only married, but married to Burt Walker, a notorious low-level crime boss. Worried that Walker will at some point discover the affair and kill him, Guy decides to be upfront, tell Walker about his transgression and beg for forgiveness. The ploy works, and the pair form a very unusual, and ultimately dangerous, friendship. Written by Conspicuous Pictures
  1. Video
  2. ID                                       : 1
  3. Format                                   : AVC
  4. Format/Info                              : Advanced Video Codec
  5. Format profile                           : [email protected]
  6. Format settings                          : CABAC / 4 Ref Frames
  7. Format settings, CABAC                   : Yes
  8. Format settings, Reference frames        : 4 frames
  9. Codec ID                                 : V_MPEG4/ISO/AVC
  10. Duration                                 : 1 h 26 min
  11. Bit rate                                 : 13.0 Mb/s
  12. Width                                    : 1 920 pixels
  13. Height                                   : 1 080 pixels
  14. Display aspect ratio                     : 16:9
  15. Frame rate mode                          : Constant
  16. Frame rate                               : 23.976 (24000/1001/189150) FPS
  17. Color space                              : YUV
  18. Chroma subsampling                       : 4:2:0
  19. Bit depth                                : 8 bits
  20. Scan type                                : Progressive
  21. Bits/(Pixel*Frame)                       : 0.262
  22. Stream size                              : 7.90 GiB (90%)
  23. Writing library                          : x264 core 157 r2867+150 7e91e0e t_mod_Custom_2 [[email protected] X86_64]
  24. Encoding settings                        : cabac=1 / ref=4 / deblock=1:-3:-3 / analyse=0x3:0x133 / me=umh / subme=11 / psy=1 / fade_compensate=0.00 / psy_rd=0.90:0.10 / mixed_ref=1 / me_range=64 / chroma_me=1 / trellis=2 / 8x8dct=1 / cqm=0 / deadzone=21,11 / fast_pskip=0 / chroma_qp_offset=-4 / threads=34 / lookahead_threads=5 / sliced_threads=0 / nr=0 / decimate=1 / interlaced=0 / bluray_compat=0 / constrained_intra=0 / fgo=0 / bframes=8 / b_pyramid=2 / b_adapt=2 / b_bias=0 / direct=3 / weightb=1 / open_gop=0 / weightp=2 / keyint=250 / keyint_min=23 / scenecut=40 / intra_refresh=0 / rc_lookahead=60 / rc=crf / mbtree=0 / crf=17.0000 / qcomp=0.70 / qpmin=0:0:0 / qpmax=69:69:69 / qpstep=4 / vbv_maxrate=35000 / vbv_bufsize=35000 / crf_max=0.0 / nal_hrd=none / filler=0 / ip_ratio=1.40 / pb_ratio=1.30 / aq=3:1.00 / aq-sensitivity=10.00 / aq-factor=1.00:1.00:1.00 / aq2=0 / aq3=0
  25. Language                                 : English
  26. Default                                  : Yes
  27. Forced                                   : No

  28. Audio
  29. ID                                       : 2
  30. Format                                   : DTS
  31. Format/Info                              : Digital Theater Systems
  32. Codec ID                                 : A_DTS
  33. Duration                                 : 1 h 26 min
  34. Bit rate mode                            : Constant
  35. Bit rate                                 : 1 509 kb/s
  36. Channel(s)                               : 6 channels
  37. Channel layout                           : C L R Ls Rs LFE
  38. Sampling rate                            : 48.0 kHz
  39. Frame rate                               : 93.750 FPS (512 SPF)
  40. Bit depth                                : 24 bits
  41. Compression mode                         : Lossy
  42. Stream size                              : 936 MiB (10%)
  43. Language                                 : English
  44. Default                                  : Yes
  45. Forced                                   : No

  46. Text
  47. ID                                       : 3
  48. Format                                   : UTF-8
  49. Codec ID                                 : S_TEXT/UTF8
  50. Codec ID/Info                            : UTF-8 Plain Text
  51. Duration                                 : 1 h 24 min
  52. Bit rate                                 : 68 b/s
  53. Count of elements                        : 1196
  54. Stream size                              : 42.9 KiB (0%)
  55. Language                                 : English
  56. Default                                  : Yes
  57. Forced                                   : No
复制代码

残暴的心 Cruel.Hearts.2018.1080p.BluRay.x264.DTS-CHD 8.82GB-2.png 残暴的心 Cruel.Hearts.2018.1080p.BluRay.x264.DTS-CHD 8.82GB-3.png 残暴的心 Cruel.Hearts.2018.1080p.BluRay.x264.DTS-CHD 8.82GB-4.png







回复

使用道具 举报

懒得打字嘛,点击右侧快捷回复 【右侧内容,后台自定义】
您需要登录后才可以回帖 登录 | 立即加入

本版积分规则

Archiver|小黑屋| 蓝光电影网 |网站地图

Copyright © 2021 Comsenz Inc. Powered by 蓝光电影网

蓝光电影网

本站内容由用户自主分享和转载自互联网,转载目的在于传递更多信息,并不代表本网赞同其观点和对其真实性负责。

如有侵权、违反国家法律政策行为,请联系我们,我们会第一时间及时清除和处理!

举报反馈邮箱:[email protected]

快速回复 返回顶部 返回列表