找回密码

蓝光电影网

查看: 168|回复: 0

[剧情] 冒险男孩 Adventure.Boyz.2019.1080p.BluRay.x264.DTS-CHD 10.69GB

[复制链接]
蓝光币
515
发表于 2020-4-28 23:20:05 | 显示全部楼层 |阅读模式
冒险男孩 Adventure.Boyz.2019.1080p.BluRay.x264.DTS-CHD 10.69GB-1.png

译  名 冒险男孩
片  名 Adventure Boyz
年  代 2019
产  地 英国
类  别 家庭
语  言 英语
上映日期 2019-07-20(英国)
IMDb评分  5.1/10 from 183 users
IMDb链接  https://www.imdb.com/title/tt9671918
豆瓣评分 0/10 from 0 users
豆瓣链接 https://movie.douban.com/subject/34971707/
片  长 93分钟
导  演 Howard J. Ford
编  剧 Howard J. Ford
主  演 乔恩·坎普林 Jon Campling
       Angela Dixon
       Russell Shaw
       Justin Hayward
       Glenn Salvage
       Jonathan Hansler
       莎朗·劳伦斯 Sharon Lawrence
       Sarah Maddocks


标  签 英国电影 | 英国 | 温情 | 2019 | 正太 | 小孩

简  介  

  当英格兰最大的城堡被污名昭著的犯罪老板(乔恩·坎普林饰,曾在《哈利·波特》中饰演食死徒)抢劫时,他和他的犯罪团伙却没想到要面临骑着越野自行车的两个男孩。
  当男孩的母亲(安吉拉·迪克森(Angela Dixon),“永不罢休”(Never Let Go))和竞速赛车手的父亲分开儿子回到旧金山观光时,他们的“老派”父亲不喜幸亏手机上度过的时光,反而使他们想起了冲动或现实生活冒险。
  命运的转折致使男孩发现了钻石偷盗案,但在此进程中,他们的父亲因犯罪而被捕,激发了一场与时候赛跑的比赛。
  1. Video
  2. ID                                       : 1
  3. Format                                   : AVC
  4. Format/Info                              : Advanced Video Codec
  5. Format profile                           : [email protected]
  6. Format settings                          : CABAC / 4 Ref Frames
  7. Format settings, CABAC                   : Yes
  8. Format settings, Reference frames        : 4 frames
  9. Codec ID                                 : V_MPEG4/ISO/AVC
  10. Duration                                 : 1 h 32 min
  11. Bit rate                                 : 15.0 Mb/s
  12. Width                                    : 1 920 pixels
  13. Height                                   : 1 080 pixels
  14. Display aspect ratio                     : 16:9
  15. Frame rate mode                          : Constant
  16. Frame rate                               : 23.976 (24000/1001/189150) FPS
  17. Color space                              : YUV
  18. Chroma subsampling                       : 4:2:0
  19. Bit depth                                : 8 bits
  20. Scan type                                : Progressive
  21. Bits/(Pixel*Frame)                       : 0.301
  22. Stream size                              : 9.71 GiB (91%)
  23. Writing library                          : x264 core 157 r2867+150 7e91e0e t_mod_Custom_2 [[email protected] X86_64]
  24. Encoding settings                        : cabac=1 / ref=4 / deblock=1:-3:-3 / analyse=0x3:0x133 / me=umh / subme=11 / psy=1 / fade_compensate=0.00 / psy_rd=0.90:0.10 / mixed_ref=1 / me_range=64 / chroma_me=1 / trellis=2 / 8x8dct=1 / cqm=0 / deadzone=21,11 / fast_pskip=0 / chroma_qp_offset=-4 / threads=34 / lookahead_threads=5 / sliced_threads=0 / nr=0 / decimate=1 / interlaced=0 / bluray_compat=0 / constrained_intra=0 / fgo=0 / bframes=8 / b_pyramid=2 / b_adapt=2 / b_bias=0 / direct=3 / weightb=1 / open_gop=0 / weightp=2 / keyint=250 / keyint_min=23 / scenecut=40 / intra_refresh=0 / rc_lookahead=60 / rc=crf / mbtree=0 / crf=18.0000 / qcomp=0.70 / qpmin=0:0:0 / qpmax=69:69:69 / qpstep=4 / vbv_maxrate=35000 / vbv_bufsize=35000 / crf_max=0.0 / nal_hrd=none / filler=0 / ip_ratio=1.40 / pb_ratio=1.30 / aq=3:1.00 / aq-sensitivity=10.00 / aq-factor=1.00:1.00:1.00 / aq2=0 / aq3=0
  25. Language                                 : English
  26. Default                                  : Yes
  27. Forced                                   : No

  28. Audio
  29. ID                                       : 2
  30. Format                                   : DTS
  31. Format/Info                              : Digital Theater Systems
  32. Codec ID                                 : A_DTS
  33. Duration                                 : 1 h 32 min
  34. Bit rate mode                            : Constant
  35. Bit rate                                 : 1 509 kb/s
  36. Channel(s)                               : 6 channels
  37. Channel layout                           : C L R Ls Rs LFE
  38. Sampling rate                            : 48.0 kHz
  39. Frame rate                               : 93.750 FPS (512 SPF)
  40. Bit depth                                : 24 bits
  41. Compression mode                         : Lossy
  42. Stream size                              : 1 002 MiB (9%)
  43. Language                                 : English
  44. Default                                  : Yes
  45. Forced                                   : No

  46. Text
  47. ID                                       : 3
  48. Format                                   : UTF-8
  49. Codec ID                                 : S_TEXT/UTF8
  50. Codec ID/Info                            : UTF-8 Plain Text
  51. Duration                                 : 1 h 31 min
  52. Bit rate                                 : 50 b/s
  53. Count of elements                        : 1096
  54. Stream size                              : 33.6 KiB (0%)
  55. Language                                 : English
  56. Default                                  : Yes
  57. Forced                                   : No
复制代码

冒险男孩 Adventure.Boyz.2019.1080p.BluRay.x264.DTS-CHD 10.69GB-2.png 冒险男孩 Adventure.Boyz.2019.1080p.BluRay.x264.DTS-CHD 10.69GB-3.png 冒险男孩 Adventure.Boyz.2019.1080p.BluRay.x264.DTS-CHD 10.69GB-4.png







回复

使用道具 举报

懒得打字嘛,点击右侧快捷回复 【右侧内容,后台自定义】
您需要登录后才可以回帖 登录 | 立即加入

本版积分规则

Archiver|小黑屋| 蓝光电影网 |网站地图

Copyright © 2021 Comsenz Inc. Powered by 蓝光电影网

蓝光电影网

本站内容由用户自主分享和转载自互联网,转载目的在于传递更多信息,并不代表本网赞同其观点和对其真实性负责。

如有侵权、违反国家法律政策行为,请联系我们,我们会第一时间及时清除和处理!

举报反馈邮箱:[email protected]

快速回复 返回顶部 返回列表