找回密码

蓝光电影网

查看: 218|回复: 1

[剧情] 倚马而息 Calm.with.Horses.2019.1080p.AMZN.WEBRip.DDP5.1.x264-NTG 6.73GB

[复制链接]
蓝光币
511
发表于 2020-4-28 23:23:14 | 显示全部楼层 |阅读模式
倚马而息 Calm.with.Horses.2019.1080p.AMZN.WEBRip.DDP5.1.x264-NTG 6.73GB-1.png

译  名 倚马而息
片  名 Calm with Horses
年  代 2019
产  地 英国 / 爱尔兰
类  别 剧情
语  言 英语
上映日期 2019-09-08(多伦多电影节) / 2020-03-13(英国&爱尔兰)
IMDb评分  7.3/10 from 172 users
IMDb链接  https://www.imdb.com/title/tt4460792
豆瓣评分 0/10 from 0 users
豆瓣链接 https://movie.douban.com/subject/30206945/
片  长 101分钟
导  演 Nick Rowland
编  剧 Joe Murtagh
主  演 巴里·基奥根 Barry Keoghan
       柯斯莫·贾维斯 Cosmo Jarvis
       妮娅姆·阿尔格 Niamh Algar
       奈德·丹内利 Ned Dennehy
       安东尼·威尔士 Anthony Welsh
       大卫·威尔莫特 David Wilmot
       西蒙妮·柯比 Simone Kirby
       瑞安·麦克法兰 Ryan McParland
       Hazel Doupe
       Lee Byford
       Roisin O'Neill
       Toni O'Rourke
       Stephen McDade
       Liam Carney
       John Paul O'Driscoll


标  签 英国电影 | 英国 | 爱尔兰文学 | 爱尔兰 | 文学作品改编 | 改编 | 2020 | 犯罪

简  介  

  柯斯莫·贾维斯(《湮灭》《麦克白夫人》)、巴里·基奥汉、尼·阿尔加将主演新片《以马安静》(Calm With Horses),迈克尔·法斯宾德的制片公司DMC Films和Element Pictures建造。基于Colin Barrett所著短篇故事集《Young Skins》里的同名短篇,设定在爱尔兰村落,前拳击手Arm在尝试做他5岁患自闭症儿子的好父亲的同时,成为了处置毒品买卖的Devers家属的使人害怕的履行者,他被迫初次杀人,在尝试做正确的事的时辰会危及到每一个他器重的人。Joe Murtagh改编剧本并首执导筒,5月中旬开拍,Film4介入投资。
  1. Video
  2. ID                                       : 1
  3. Format                                   : AVC
  4. Format/Info                              : Advanced Video Codec
  5. Format profile                           : [email protected]
  6. Format settings                          : CABAC / 4 Ref Frames
  7. Format settings, CABAC                   : Yes
  8. Format settings, Reference frames        : 4 frames
  9. Codec ID                                 : V_MPEG4/ISO/AVC
  10. Duration                                 : 1 h 40 min
  11. Bit rate mode                            : Constant
  12. Bit rate                                 : 8 943 kb/s
  13. Nominal bit rate                         : 10 000 kb/s
  14. Width                                    : 1 920 pixels
  15. Height                                   : 800 pixels
  16. Display aspect ratio                     : 2.40:1
  17. Frame rate mode                          : Constant
  18. Frame rate                               : 24.000 FPS
  19. Color space                              : YUV
  20. Chroma subsampling                       : 4:2:0
  21. Bit depth                                : 8 bits
  22. Scan type                                : Progressive
  23. Bits/(Pixel*Frame)                       : 0.243
  24. Stream size                              : 6.28 GiB (93%)
  25. Default                                  : Yes
  26. Forced                                   : No
  27. Color range                              : Limited
  28. Color primaries                          : BT.709
  29. Transfer characteristics                 : BT.709
  30. Matrix coefficients                      : BT.709

  31. Audio
  32. ID                                       : 2
  33. Format                                   : E-AC-3
  34. Format/Info                              : Enhanced AC-3
  35. Commercial name                          : Dolby Digital Plus
  36. Codec ID                                 : A_EAC3
  37. Duration                                 : 1 h 40 min
  38. Bit rate mode                            : Constant
  39. Bit rate                                 : 640 kb/s
  40. Channel(s)                               : 6 channels
  41. Channel layout                           : L R C LFE Ls Rs
  42. Sampling rate                            : 48.0 kHz
  43. Frame rate                               : 31.250 FPS (1536 SPF)
  44. Compression mode                         : Lossy
  45. Stream size                              : 460 MiB (7%)
  46. Language                                 : English
  47. Service kind                             : Complete Main
  48. Default                                  : Yes
  49. Forced                                   : No
复制代码

倚马而息 Calm.with.Horses.2019.1080p.AMZN.WEBRip.DDP5.1.x264-NTG 6.73GB-2.png 倚马而息 Calm.with.Horses.2019.1080p.AMZN.WEBRip.DDP5.1.x264-NTG 6.73GB-3.png 倚马而息 Calm.with.Horses.2019.1080p.AMZN.WEBRip.DDP5.1.x264-NTG 6.73GB-4.png







回复

使用道具 举报

懒得打字嘛,点击右侧快捷回复 【右侧内容,后台自定义】
您需要登录后才可以回帖 登录 | 立即加入

本版积分规则

Archiver|小黑屋| 蓝光电影网 |网站地图

Copyright © 2021 Comsenz Inc. Powered by 蓝光电影网

蓝光电影网

本站内容由用户自主分享和转载自互联网,转载目的在于传递更多信息,并不代表本网赞同其观点和对其真实性负责。

如有侵权、违反国家法律政策行为,请联系我们,我们会第一时间及时清除和处理!

举报反馈邮箱:[email protected]

快速回复 返回顶部 返回列表