找回密码

蓝光电影网

查看: 252|回复: 0

[剧情] 爱之情照 The.Photograph.2020.1080p.AMZN.WEBRip.DDP5.1.x264-NTG 4.47GB

[复制链接]
蓝光币
515
发表于 2020-4-28 23:24:12 | 显示全部楼层 |阅读模式
爱之情照 The.Photograph.2020.1080p.AMZN.WEBRip.DDP5.1.x264-NTG 4.47GB-1.png

译  名 爱之情照 / Снимката
片  名 The Photograph
年  代 2020
产  地 美国
类  别 剧情 / 恋爱
语  言 英语
上映日期 2020-02-14(美国)
IMDb评分  6.2/10 from 1372 users
IMDb链接  https://www.imdb.com/title/tt7798646
豆瓣评分 0/10 from 0 users
豆瓣链接 https://movie.douban.com/subject/33394389/
片  长 106分钟
导  演 斯特拉·梅吉 Stella Meghie
编  剧 斯特拉·梅吉 Stella Meghie
主  演 勒凯斯·斯坦菲尔德 Lakeith Stanfield
       伊萨·雷 Issa Rae
       切尔西·帕瑞蒂 Chelsea Peretti
       泰柔娜·派丽丝 Teyonah Parris
       小凯文·哈里森 Kelvin Harrison Jr.
       罗布·摩根 Rob Morgan
       考特尼·万斯 Courtney B. Vance
       雅斯曼·塞斯·琼斯 Jasmine Cephas Jones
       里尔·莱尔·哈瓦瑞 Lil Rel Howery
       玛莎·斯蒂芬妮·布莱克 Marsha Stephanie Blake
       肯尼思·肯特·布赖恩 Kenneth Kynt Bryan
       伊兰·诺尔 Y'lan Noel
       瓦琪玛霍利斯 Wakeema Hollis
       香缇·亚当斯 Chanté Adams
       克里斯托弗·卡萨里诺 Christopher Cassarino
       托尼亚·马尔多纳多 Tonya Maldonado


标  签 美国 | 恋爱 | 剧情 | 2020 | 举世 | Love | 影 | Stella_Meghie

简  介  

  著名摄影师克里斯蒂娜·埃姆斯意外归天,留下与她冷淡的女儿梅(Mae),梅感应悲伤、愤慨,但又疑问重重。当梅发现一张藏在保险箱里的照片时,她起头钻研她母亲的晚年生活——这项观察致使了她与一位记者的一段意想不到的爱情。
  1. Video
  2. ID                                       : 1
  3. Format                                   : AVC
  4. Format/Info                              : Advanced Video Codec
  5. Format profile                           : [email protected]
  6. Format settings                          : CABAC / 4 Ref Frames
  7. Format settings, CABAC                   : Yes
  8. Format settings, Reference frames        : 4 frames
  9. Codec ID                                 : V_MPEG4/ISO/AVC
  10. Duration                                 : 1 h 46 min
  11. Bit rate mode                            : Constant
  12. Bit rate                                 : 5 370 kb/s
  13. Nominal bit rate                         : 10 000 kb/s
  14. Width                                    : 1 920 pixels
  15. Height                                   : 800 pixels
  16. Display aspect ratio                     : 2.40:1
  17. Frame rate mode                          : Constant
  18. Frame rate                               : 23.976 (24000/1001/189150) FPS
  19. Color space                              : YUV
  20. Chroma subsampling                       : 4:2:0
  21. Bit depth                                : 8 bits
  22. Scan type                                : Progressive
  23. Bits/(Pixel*Frame)                       : 0.146
  24. Stream size                              : 3.99 GiB (89%)
  25. Default                                  : Yes
  26. Forced                                   : No
  27. Color range                              : Limited
  28. Color primaries                          : BT.709
  29. Transfer characteristics                 : BT.709
  30. Matrix coefficients                      : BT.709

  31. Audio
  32. ID                                       : 2
  33. Format                                   : E-AC-3
  34. Format/Info                              : Enhanced AC-3
  35. Commercial name                          : Dolby Digital Plus
  36. Codec ID                                 : A_EAC3
  37. Duration                                 : 1 h 46 min
  38. Bit rate mode                            : Constant
  39. Bit rate                                 : 640 kb/s
  40. Channel(s)                               : 6 channels
  41. Channel layout                           : L R C LFE Ls Rs
  42. Sampling rate                            : 48.0 kHz
  43. Frame rate                               : 31.250 FPS (1536 SPF)
  44. Compression mode                         : Lossy
  45. Stream size                              : 487 MiB (11%)
  46. Language                                 : English
  47. Service kind                             : Complete Main
  48. Default                                  : Yes
  49. Forced                                   : No

  50. Text #1
  51. ID                                       : 3
  52. Format                                   : UTF-8
  53. Codec ID                                 : S_TEXT/UTF8
  54. Codec ID/Info                            : UTF-8 Plain Text
  55. Duration                                 : 1 h 43 min
  56. Bit rate                                 : 58 b/s
  57. Count of elements                        : 1567
  58. Stream size                              : 44.3 KiB (0%)
  59. Language                                 : English
  60. Default                                  : No
  61. Forced                                   : No

  62. Text #2
  63. ID                                       : 4
  64. Format                                   : UTF-8
  65. Codec ID                                 : S_TEXT/UTF8
  66. Codec ID/Info                            : UTF-8 Plain Text
  67. Duration                                 : 1 h 46 min
  68. Bit rate                                 : 63 b/s
  69. Count of elements                        : 1787
  70. Stream size                              : 49.4 KiB (0%)
  71. Title                                    : SDH
  72. Language                                 : English
  73. Default                                  : No
  74. Forced                                   : No

  75. Menu
  76. 00:00:00.000                             : en:Studio Logo
  77. 00:00:35.000                             : en:Scene 2
  78. 00:01:58.000                             : en:Studio Logo
  79. 00:02:09.000                             : en:Scene 4
  80. 00:08:00.000                             : en:Scene 5
  81. 00:12:20.000                             : en:Scene 6
  82. 00:15:10.000                             : en:Scene 7
  83. 00:18:38.000                             : en:Scene 8
  84. 00:24:32.000                             : en:Scene 9
  85. 00:28:36.000                             : en:Scene 10
  86. 00:34:11.000                             : en:Scene 11
  87. 00:36:28.000                             : en:Scene 12
  88. 00:43:21.000                             : en:Scene 13
  89. 00:50:14.000                             : en:Scene 14
  90. 00:55:00.000                             : en:Scene 15
  91. 00:58:31.000                             : en:Scene 16
  92. 01:02:11.000                             : en:Scene 17
  93. 01:08:06.000                             : en:Scene 18
  94. 01:13:39.000                             : en:Scene 19
  95. 01:18:45.000                             : en:Scene 20
  96. 01:25:31.000                             : en:Scene 21
  97. 01:29:40.000                             : en:Scene 22
  98. 01:33:51.000                             : en:Scene 23
  99. 01:40:31.000                             : en:End Credits
复制代码

爱之情照 The.Photograph.2020.1080p.AMZN.WEBRip.DDP5.1.x264-NTG 4.47GB-2.png 爱之情照 The.Photograph.2020.1080p.AMZN.WEBRip.DDP5.1.x264-NTG 4.47GB-3.png 爱之情照 The.Photograph.2020.1080p.AMZN.WEBRip.DDP5.1.x264-NTG 4.47GB-4.png







回复

使用道具 举报

懒得打字嘛,点击右侧快捷回复 【右侧内容,后台自定义】
您需要登录后才可以回帖 登录 | 立即加入

本版积分规则

Archiver|小黑屋| 蓝光电影网 |网站地图

Copyright © 2021 Comsenz Inc. Powered by 蓝光电影网

蓝光电影网

本站内容由用户自主分享和转载自互联网,转载目的在于传递更多信息,并不代表本网赞同其观点和对其真实性负责。

如有侵权、违反国家法律政策行为,请联系我们,我们会第一时间及时清除和处理!

举报反馈邮箱:[email protected]

快速回复 返回顶部 返回列表