找回密码

蓝光电影网

查看: 428|回复: 1

[惊悚] 捕梦魔 Dreamkatcher.2020.1080p.AMZN.WEBRip.DDP5.1.x264-NTG 5.07GB

[复制链接]
蓝光币
515
发表于 2020-4-28 23:26:42 | 显示全部楼层 |阅读模式
MV5BYTU1YWY5MDItYmJiNC00NzdkLTlmZjgtMjBlYjI2NGIzYmI0XkEyXkFqcGdeQXVyMDA4NzMyOA@@.jpg

译  名 捕梦魔
片  名 Dreamkatcher
年  代 2020
产  地 美国
类  别 惊悚 / 可骇
语  言 英语
上映日期 2020-04-28(美国)
IMDb链接  https://www.imdb.com/title/tt10553210
豆瓣评分 0/10 from 0 users
豆瓣链接 https://movie.douban.com/subject/34805798/
导  演 Kerry Harris
编  剧 Kerry Harris / Dan V. Shea
主  演 拉达·米切尔 Radha Mitchell
       亨利·托马斯 Henry Thomas
       林·沙烨 Lin Shaye
       约瑟夫·比沙拉 Joseph Bishara
       Finlay Wojtak-Hissong
       Jules Willcox


标  签 可骇 | 美国 | 2020 | 梦魔 | 可骇片

简  介  

  In order to stop his bad dreams a young boy steals a dreamcatcher from a mysterious neighbor forcing his family to rescue him from a nightmarish entity.
  1. Video
  2. ID                                       : 1
  3. Format                                   : AVC
  4. Format/Info                              : Advanced Video Codec
  5. Format profile                           : [email protected]
  6. Format settings                          : CABAC / 4 Ref Frames
  7. Format settings, CABAC                   : Yes
  8. Format settings, Reference frames        : 4 frames
  9. Codec ID                                 : V_MPEG4/ISO/AVC
  10. Duration                                 : 1 h 25 min
  11. Bit rate mode                            : Constant
  12. Bit rate                                 : 7 866 kb/s
  13. Nominal bit rate                         : 10 000 kb/s
  14. Width                                    : 1 920 pixels
  15. Height                                   : 1 080 pixels
  16. Display aspect ratio                     : 16:9
  17. Frame rate mode                          : Constant
  18. Frame rate                               : 23.976 (24000/1001/189150) FPS
  19. Color space                              : YUV
  20. Chroma subsampling                       : 4:2:0
  21. Bit depth                                : 8 bits
  22. Scan type                                : Progressive
  23. Bits/(Pixel*Frame)                       : 0.158
  24. Stream size                              : 4.69 GiB (92%)
  25. Default                                  : Yes
  26. Forced                                   : No
  27. Color range                              : Limited
  28. Color primaries                          : BT.709
  29. Transfer characteristics                 : BT.709
  30. Matrix coefficients                      : BT.709

  31. Audio
  32. ID                                       : 2
  33. Format                                   : E-AC-3
  34. Format/Info                              : Enhanced AC-3
  35. Commercial name                          : Dolby Digital Plus
  36. Codec ID                                 : A_EAC3
  37. Duration                                 : 1 h 25 min
  38. Bit rate mode                            : Constant
  39. Bit rate                                 : 640 kb/s
  40. Channel(s)                               : 6 channels
  41. Channel layout                           : L R C LFE Ls Rs
  42. Sampling rate                            : 48.0 kHz
  43. Frame rate                               : 31.250 FPS (1536 SPF)
  44. Compression mode                         : Lossy
  45. Stream size                              : 390 MiB (8%)
  46. Language                                 : English
  47. Service kind                             : Complete Main
  48. Default                                  : Yes
  49. Forced                                   : No

  50. Text #1
  51. ID                                       : 3
  52. Format                                   : UTF-8
  53. Codec ID                                 : S_TEXT/UTF8
  54. Codec ID/Info                            : UTF-8 Plain Text
  55. Duration                                 : 1 h 11 min
  56. Bit rate                                 : 41 b/s
  57. Count of elements                        : 747
  58. Stream size                              : 21.8 KiB (0%)
  59. Language                                 : English
  60. Default                                  : No
  61. Forced                                   : No

  62. Text #2
  63. ID                                       : 4
  64. Format                                   : UTF-8
  65. Codec ID                                 : S_TEXT/UTF8
  66. Codec ID/Info                            : UTF-8 Plain Text
  67. Duration                                 : 1 h 17 min
  68. Bit rate                                 : 43 b/s
  69. Count of elements                        : 856
  70. Stream size                              : 24.3 KiB (0%)
  71. Title                                    : SDH
  72. Language                                 : English
  73. Default                                  : No
  74. Forced                                   : No
复制代码

捕梦魔 Dreamkatcher.2020.1080p.AMZN.WEBRip.DDP5.1.x264-NTG 5.07GB-1.png 捕梦魔 Dreamkatcher.2020.1080p.AMZN.WEBRip.DDP5.1.x264-NTG 5.07GB-2.png 捕梦魔 Dreamkatcher.2020.1080p.AMZN.WEBRip.DDP5.1.x264-NTG 5.07GB-3.png







回复

使用道具 举报

懒得打字嘛,点击右侧快捷回复 【右侧内容,后台自定义】
您需要登录后才可以回帖 登录 | 立即加入

本版积分规则

Archiver|小黑屋| 蓝光电影网 |网站地图

Copyright © 2021 Comsenz Inc. Powered by 蓝光电影网

蓝光电影网

本站内容由用户自主分享和转载自互联网,转载目的在于传递更多信息,并不代表本网赞同其观点和对其真实性负责。

如有侵权、违反国家法律政策行为,请联系我们,我们会第一时间及时清除和处理!

举报反馈邮箱:[email protected]

快速回复 返回顶部 返回列表