找回密码

蓝光电影网

查看: 194|回复: 0

[恐怖] 阴影的来源 The.Source.Of.Shadows.2020.1080p.WEB-DL.DD2.0.H264-FGT 3.03GB

[复制链接]
蓝光币
515
发表于 2020-4-28 23:30:53 | 显示全部楼层 |阅读模式
阴影的来历 The.Source.Of.Shadows.2020.1080p.WEB-DL.DD2.0.H264-FGT 3.03GB-1.png

译  名 阴影的来历
片  名 The Source of Shadows
年  代 2019
产  地 美国
类  别 可骇
语  言 英语
上映日期 2020-04-28(美国)
IMDb链接  https://www.imdb.com/title/tt10695464
豆瓣评分 0/10 from 0 users
豆瓣链接 https://movie.douban.com/subject/35017063/
片  长 83分钟
导  演 Ryan Bury / Jennifer Bonior / James Bowsher / Zev Chevat / Sean Cruser / Adam O'Brien / John Rhee / Daniel Robinette / John Rushing / 吉吉·索尔·格雷罗 Gigi Saul Guerrero / Nicole Scherer / Dycee Wildman
编  剧 Jennifer Bonior / Trevor Botkin / James Bowsher / Ryan Bury / Zev Chevat / Sean Cruser / Jér?me Gariépy / Julien Maisonneuve / Adam O'Brien / John Rhee / 吉吉·索尔·格雷罗 Gigi Saul Guerrero / Nicole Scherer / Raynor Shima / Dycee Wildman
主  演 凯莉·弗鲁曼 Kelly Vrooman
       汤姆·伯宁顿 Tom Bonington
       Mathias Retamal


简  介  

  A series of stories woven together by one of our most primal fears, the fear of the unknown.
  1. Video
  2. ID                                       : 1
  3. Format                                   : AVC
  4. Format/Info                              : Advanced Video Codec
  5. Format profile                           : [email protected]
  6. Format settings                          : CABAC / 4 Ref Frames
  7. Format settings, CABAC                   : Yes
  8. Format settings, Reference frames        : 4 frames
  9. Codec ID                                 : V_MPEG4/ISO/AVC
  10. Duration                                 : 1 h 22 min
  11. Bit rate                                 : 5 050 kb/s
  12. Width                                    : 1 920 pixels
  13. Height                                   : 1 080 pixels
  14. Display aspect ratio                     : 16:9
  15. Frame rate mode                          : Constant
  16. Frame rate                               : 23.976 FPS
  17. Color space                              : YUV
  18. Chroma subsampling                       : 4:2:0
  19. Bit depth                                : 8 bits
  20. Scan type                                : Progressive
  21. Bits/(Pixel*Frame)                       : 0.102
  22. Stream size                              : 2.92 GiB (96%)
  23. Title                                    : The.Source.Of.Shadows.2020.1080p.WEB-DL.DD2.0.H264-FGT
  24. Language                                 : English
  25. Default                                  : Yes
  26. Forced                                   : No
  27. Color range                              : Limited
  28. Color primaries                          : BT.709
  29. Transfer characteristics                 : BT.709
  30. Matrix coefficients                      : BT.709

  31. Audio
  32. ID                                       : 2
  33. Format                                   : AC-3
  34. Format/Info                              : Audio Coding 3
  35. Commercial name                          : Dolby Digital
  36. Codec ID                                 : A_AC3
  37. Duration                                 : 1 h 22 min
  38. Bit rate mode                            : Constant
  39. Bit rate                                 : 192 kb/s
  40. Channel(s)                               : 2 channels
  41. Channel layout                           : L R
  42. Sampling rate                            : 48.0 kHz
  43. Frame rate                               : 31.250 FPS (1536 SPF)
  44. Bit depth                                : 16 bits
  45. Compression mode                         : Lossy
  46. Stream size                              : 114 MiB (4%)
  47. Title                                    : The.Source.Of.Shadows.2020.1080p.WEB-DL.DD2.0.H264-FGT
  48. Language                                 : English
  49. Service kind                             : Complete Main
  50. Default                                  : Yes
  51. Forced                                   : No

  52. Text
  53. ID                                       : 3
  54. Format                                   : UTF-8
  55. Codec ID                                 : S_TEXT/UTF8
  56. Codec ID/Info                            : UTF-8 Plain Text
  57. Duration                                 : 1 h 16 min
  58. Bit rate                                 : 20 b/s
  59. Count of elements                        : 499
  60. Stream size                              : 11.6 KiB (0%)
  61. Language                                 : English
  62. Default                                  : Yes
  63. Forced                                   : No

  64. Menu
  65. 00:00:00.000                             : en:1
  66. 00:10:44.561                             : en:2
  67. 00:14:17.523                             : en:3
  68. 00:19:54.358                             : en:4
  69. 00:29:35.229                             : en:5
  70. 00:33:44.603                             : en:6
  71. 00:40:06.401                             : en:7
  72. 00:51:56.861                             : en:8
  73. 00:57:05.920                             : en:9
  74. 01:01:36.731                             : en:10
  75. 01:17:01.614                             : en:11
复制代码

阴影的来历 The.Source.Of.Shadows.2020.1080p.WEB-DL.DD2.0.H264-FGT 3.03GB-2.png 阴影的来历 The.Source.Of.Shadows.2020.1080p.WEB-DL.DD2.0.H264-FGT 3.03GB-3.png 阴影的来历 The.Source.Of.Shadows.2020.1080p.WEB-DL.DD2.0.H264-FGT 3.03GB-4.png







回复

使用道具 举报

懒得打字嘛,点击右侧快捷回复 【右侧内容,后台自定义】
您需要登录后才可以回帖 登录 | 立即加入

本版积分规则

Archiver|小黑屋| 蓝光电影网 |网站地图

Copyright © 2021 Comsenz Inc. Powered by 蓝光电影网

蓝光电影网

本站内容由用户自主分享和转载自互联网,转载目的在于传递更多信息,并不代表本网赞同其观点和对其真实性负责。

如有侵权、违反国家法律政策行为,请联系我们,我们会第一时间及时清除和处理!

举报反馈邮箱:[email protected]

快速回复 返回顶部 返回列表