找回密码

蓝光电影网

查看: 215|回复: 0

[剧情] 未曾走过的路 The.Roads.Not.Taken.2020.1080p.WEB-DL.DD5.1.H264-FGT 2.96GB

[复制链接]
蓝光币
515
发表于 2020-4-28 23:34:44 | 显示全部楼层 |阅读模式
不曾走过的路 The.Roads.Not.Taken.2020.1080p.WEB-DL.DD5.1.H264-FGT 2.96GB-1.png

译  名 不曾走过的路 / Molly / 未挑选的路 / 茉利 / 莫莉
片  名 The Roads Not Taken
年  代 2020
产  地 英国 / 美国 / 瑞典
类  别 剧情
语  言 英语
上映日期 2020-02-26(柏林电影节) / 2020-03-13(美国)
IMDb评分  4.6/10 from 321 users
IMDb链接  https://www.imdb.com/title/tt9411866
豆瓣评分 4.5/10 from 145 users
豆瓣链接 https://movie.douban.com/subject/26710372/
片  长 85分钟
导  演 莎莉·波特 Sally Potter
编  剧 莎莉·波特 Sally Potter
主  演 哈维尔·巴登 Javier Bardem
       艾丽·范宁 Elle Fanning
       萨尔玛·海耶克 Salma Hayek
       布兰卡·卡蒂奇 Branka Katic
       劳拉·琳妮 Laura Linney
       戴维娜·西塔拉姆 Davina Sitaram
       米莲娜·柴特克 Milena Tscharntke
       Cory Peterson
       Griffin Stevens
       Dimitri Andreas
       Katia Mullova-Brind
       Debora Weston
       Aaron Joshua
       Sabina Cameron
       Catherine Levi
       Ruth Keeling
       Olan Montgomery


标  签 2020 | 美国 | 艾丽·范宁 | 剧情 | 英国 | 哈维尔·巴登 | 莎莉·波特 | 萨尔玛·海耶克

简  介  

  哈维尔·巴登、艾丽·范宁、萨尔玛·海耶克、克里斯·洛克、劳拉·琳妮将主演莎莉·波特(《奥兰多》《纵情四海》)执导的未命名新片,已在西班牙开拍。影片聚焦一个处于解体边沿的汉子度过疯狂的一天,他的女儿赐与他无条件的爱,帮助他平复心态。巴登和海耶克饰演青梅竹马的情人/夫妻,范宁饰演他们的女儿。Bleecker Street负责美国刊行,HanWay Films负责美国之外的刊行。

获奖情况  

  第70届柏林国际电影节(2020)
  金熊奖(提名) 莎莉·波特
  1. Video
  2. ID                                       : 1
  3. Format                                   : AVC
  4. Format/Info                              : Advanced Video Codec
  5. Format profile                           : [email protected]
  6. Format settings                          : CABAC / 5 Ref Frames
  7. Format settings, CABAC                   : Yes
  8. Format settings, Reference frames        : 5 frames
  9. Codec ID                                 : V_MPEG4/ISO/AVC
  10. Duration                                 : 1 h 25 min
  11. Bit rate                                 : 4 582 kb/s
  12. Width                                    : 1 920 pixels
  13. Height                                   : 804 pixels
  14. Display aspect ratio                     : 2.40:1
  15. Frame rate mode                          : Constant
  16. Frame rate                               : 24.000 FPS
  17. Color space                              : YUV
  18. Chroma subsampling                       : 4:2:0
  19. Bit depth                                : 8 bits
  20. Scan type                                : Progressive
  21. Bits/(Pixel*Frame)                       : 0.124
  22. Stream size                              : 2.73 GiB (92%)
  23. Title                                    : The.Roads.Not.Taken.2020.1080p.WEB-DL.DD5.1.H264-FGT
  24. Language                                 : English
  25. Default                                  : Yes
  26. Forced                                   : No
  27. Color range                              : Limited
  28. Color primaries                          : BT.709
  29. Transfer characteristics                 : BT.709
  30. Matrix coefficients                      : BT.709

  31. Audio
  32. ID                                       : 2
  33. Format                                   : AC-3
  34. Format/Info                              : Audio Coding 3
  35. Commercial name                          : Dolby Digital
  36. Codec ID                                 : A_AC3
  37. Duration                                 : 1 h 25 min
  38. Bit rate mode                            : Constant
  39. Bit rate                                 : 384 kb/s
  40. Channel(s)                               : 6 channels
  41. Channel layout                           : L R C LFE Ls Rs
  42. Sampling rate                            : 48.0 kHz
  43. Frame rate                               : 31.250 FPS (1536 SPF)
  44. Bit depth                                : 16 bits
  45. Compression mode                         : Lossy
  46. Stream size                              : 234 MiB (8%)
  47. Title                                    : The.Roads.Not.Taken.2020.1080p.WEB-DL.DD5.1.H264-FGT
  48. Language                                 : English
  49. Service kind                             : Complete Main
  50. Default                                  : No
  51. Forced                                   : No

  52. Text #1
  53. ID                                       : 3
  54. Format                                   : UTF-8
  55. Codec ID                                 : S_TEXT/UTF8
  56. Codec ID/Info                            : UTF-8 Plain Text
  57. Duration                                 : 1 h 5 min
  58. Bit rate                                 : 4 b/s
  59. Count of elements                        : 93
  60. Stream size                              : 2.06 KiB (0%)
  61. Title                                    : FORCED
  62. Language                                 : English
  63. Default                                  : Yes
  64. Forced                                   : No

  65. Text #2
  66. ID                                       : 4
  67. Format                                   : UTF-8
  68. Codec ID                                 : S_TEXT/UTF8
  69. Codec ID/Info                            : UTF-8 Plain Text
  70. Duration                                 : 1 h 16 min
  71. Bit rate                                 : 29 b/s
  72. Count of elements                        : 730
  73. Stream size                              : 16.7 KiB (0%)
  74. Language                                 : English
  75. Default                                  : No
  76. Forced                                   : No
复制代码

不曾走过的路 The.Roads.Not.Taken.2020.1080p.WEB-DL.DD5.1.H264-FGT 2.96GB-2.png 不曾走过的路 The.Roads.Not.Taken.2020.1080p.WEB-DL.DD5.1.H264-FGT 2.96GB-3.png 不曾走过的路 The.Roads.Not.Taken.2020.1080p.WEB-DL.DD5.1.H264-FGT 2.96GB-4.png







回复

使用道具 举报

懒得打字嘛,点击右侧快捷回复 【右侧内容,后台自定义】
您需要登录后才可以回帖 登录 | 立即加入

本版积分规则

Archiver|小黑屋| 蓝光电影网 |网站地图

Copyright © 2021 Comsenz Inc. Powered by 蓝光电影网

蓝光电影网

本站内容由用户自主分享和转载自互联网,转载目的在于传递更多信息,并不代表本网赞同其观点和对其真实性负责。

如有侵权、违反国家法律政策行为,请联系我们,我们会第一时间及时清除和处理!

举报反馈邮箱:[email protected]

快速回复 返回顶部 返回列表