找回密码

蓝光电影网

查看: 599|回复: 2

[动作] 风雨同路 The.Unmatchable.Match.1990.CHINESE.1080p.BluRay.x264.DTS-FGT 8.99GB

[复制链接]
蓝光币
511
发表于 2020-4-28 23:45:21 | 显示全部楼层 |阅读模式
风雨同路 The.Unmatchable.Match.1990.CHINESE.1080p.BluRay.x264.DTS-FGT 8.99GB-1.png

译  名 风雨同路 / The Unmatchable Match
片  名 風雨同路
年  代 1990
产  地 中国香港
类  别 行动
语  言 粤语
上映日期 1990-05-12(中国香港)
IMDb评分  6.2/10 from 229 users
IMDb链接  https://www.imdb.com/title/tt0097348
豆瓣评分 7.4/10 from 9462 users
豆瓣链接 https://movie.douban.com/subject/1302451/
片  长 98 分钟
导  演 黄柏文 Parkman Wong
编  剧 黄柏文 Parkman Wong / 冯瑞熊 James Fung / 廖志强 Andy Liu Chi Keung
主  演 周星驰 Stephen Chow
       周慧敏 Vivian Chow
       成奎安 Fui-On Shing
       陈惠敏 Wai-Man Chan
       关海山 Hoi-Shan Kwan
       黄子扬 Chi Yeung Wong
       李修贤 Danny Lee
       张家辉 Nick Cheung
       李子雄 Waise Lee


标  签 周星驰 | 香港 | 周慧敏 | 香港电影 | 行动 | 黑帮 | 笑剧 | 1990

简  介  

  大胆(成奎安 饰)率一伙悍匪掠夺南非钻皇得手,他们找到中心人李云飞(陈惠敏 饰)销赃,却在买卖时黑吃黑射杀收买人,李云飞趁乱逃走。卧底张郎(周星驰 饰)因工作的特别情况,致使和女友周文丽(周慧敏 饰)之间的误解越来越深,张郎欲甩手不干,但迫于老下属李警官(李修贤 饰)压 力,只得为了查清钻石劫案,受命接近李云飞。当时李云飞正遭到大胆一伙的追杀,张郎助其脱险获得了李云飞的信赖。在打仗中,张郎逐步发现李云飞作为老派江湖人物行事有情有义,两人遂结为异姓兄弟。另一方面,张郎几经尽力却没法向丽文剖明自己的卧底身份,后者眼看要假成婚前往加拿大,而张郎在警局中的下属,又只将李云飞看做勾引大胆现身的诱饵,张郎现身职责和情谊当中进退维谷……
  1. Video
  2. ID                                       : 1
  3. Format                                   : AVC
  4. Format/Info                              : Advanced Video Codec
  5. Format profile                           : [email protected]
  6. Format settings                          : CABAC / 4 Ref Frames
  7. Format settings, CABAC                   : Yes
  8. Format settings, Reference frames        : 4 frames
  9. Codec ID                                 : V_MPEG4/ISO/AVC
  10. Duration                                 : 1 h 38 min
  11. Bit rate                                 : 11.5 Mb/s
  12. Width                                    : 1 920 pixels
  13. Height                                   : 1 032 pixels
  14. Display aspect ratio                     : 1.85:1
  15. Frame rate mode                          : Constant
  16. Frame rate                               : 24.000 FPS
  17. Color space                              : YUV
  18. Chroma subsampling                       : 4:2:0
  19. Bit depth                                : 8 bits
  20. Scan type                                : Progressive
  21. Bits/(Pixel*Frame)                       : 0.242
  22. Stream size                              : 7.95 GiB (88%)
  23. Title                                    : The.Unmatchable.Match.1990.CHINESE.1080p.BluRay.x264.DTS-FGT
  24. Writing library                          : x264 core 148 r2748 97eaef2
  25. Encoding settings                        : cabac=1 / ref=4 / deblock=1:-2:-2 / analyse=0x3:0x113 / me=umh / subme=9 / psy=1 / psy_rd=1.00:0.15 / mixed_ref=1 / me_range=16 / chroma_me=1 / trellis=2 / 8x8dct=1 / cqm=0 / deadzone=21,11 / fast_pskip=1 / chroma_qp_offset=-3 / threads=24 / lookahead_threads=3 / sliced_threads=0 / nr=0 / decimate=1 / interlaced=0 / bluray_compat=0 / constrained_intra=0 / bframes=3 / b_pyramid=2 / b_adapt=1 / b_bias=0 / direct=3 / weightb=1 / open_gop=0 / weightp=2 / keyint=250 / keyint_min=25 / scenecut=40 / intra_refresh=0 / rc_lookahead=50 / rc=2pass / mbtree=1 / bitrate=11500 / ratetol=1.0 / qcomp=0.60 / qpmin=0 / qpmax=69 / qpstep=4 / cplxblur=20.0 / qblur=0.5 / vbv_maxrate=31250 / vbv_bufsize=31250 / nal_hrd=none / filler=0 / ip_ratio=1.40 / aq=1:1.00
  26. Language                                 : Chinese
  27. Default                                  : Yes
  28. Forced                                   : No

  29. Audio
  30. ID                                       : 2
  31. Format                                   : DTS
  32. Format/Info                              : Digital Theater Systems
  33. Codec ID                                 : A_DTS
  34. Duration                                 : 1 h 38 min
  35. Bit rate mode                            : Constant
  36. Bit rate                                 : 1 509 kb/s
  37. Channel(s)                               : 6 channels
  38. Channel layout                           : C L R Ls Rs LFE
  39. Sampling rate                            : 48.0 kHz
  40. Frame rate                               : 93.750 FPS (512 SPF)
  41. Bit depth                                : 16 bits
  42. Compression mode                         : Lossy
  43. Stream size                              : 1.04 GiB (12%)
  44. Title                                    : The.Unmatchable.Match.1990.CHINESE.1080p.BluRay.x264.DTS-FGT
  45. Language                                 : Chinese
  46. Default                                  : Yes
  47. Forced                                   : No

  48. Text
  49. ID                                       : 3
  50. Format                                   : UTF-8
  51. Codec ID                                 : S_TEXT/UTF8
  52. Codec ID/Info                            : UTF-8 Plain Text
  53. Duration                                 : 1 h 36 min
  54. Bit rate                                 : 50 b/s
  55. Count of elements                        : 1304
  56. Stream size                              : 35.3 KiB (0%)
  57. Language                                 : English
  58. Default                                  : Yes
  59. Forced                                   : No

  60. Menu
  61. 00:00:00.000                             : en:Chapter 01
  62. 00:07:14.458                             : en:Chapter 02
  63. 00:18:25.375                             : en:Chapter 03
  64. 00:25:19.291                             : en:Chapter 04
  65. 00:34:19.916                             : en:Chapter 05
  66. 00:41:25.375                             : en:Chapter 06
  67. 00:48:57.375                             : en:Chapter 07
  68. 00:57:18.208                             : en:Chapter 08
  69. 01:05:16.208                             : en:Chapter 09
  70. 01:14:13.250                             : en:Chapter 10
  71. 01:21:53.541                             : en:Chapter 11
  72. 01:29:39.666                             : en:Chapter 12
复制代码

风雨同路 The.Unmatchable.Match.1990.CHINESE.1080p.BluRay.x264.DTS-FGT 8.99GB-2.png 风雨同路 The.Unmatchable.Match.1990.CHINESE.1080p.BluRay.x264.DTS-FGT 8.99GB-3.png 风雨同路 The.Unmatchable.Match.1990.CHINESE.1080p.BluRay.x264.DTS-FGT 8.99GB-4.png







回复

使用道具 举报

蓝光币
636
发表于 2020-4-29 09:13:51 | 显示全部楼层
谢谢楼主无私分享。
回复 支持 反对

使用道具 举报

蓝光币
36
发表于 2020-8-2 13:23:48 | 显示全部楼层
谢谢楼主 辛苦了
回复 支持 反对

使用道具 举报

懒得打字嘛,点击右侧快捷回复 【右侧内容,后台自定义】
您需要登录后才可以回帖 登录 | 立即加入

本版积分规则

Archiver|小黑屋| 蓝光电影网 |网站地图

Copyright © 2021 Comsenz Inc. Powered by 蓝光电影网

蓝光电影网

本站内容由用户自主分享和转载自互联网,转载目的在于传递更多信息,并不代表本网赞同其观点和对其真实性负责。

如有侵权、违反国家法律政策行为,请联系我们,我们会第一时间及时清除和处理!

举报反馈邮箱:[email protected]

快速回复 返回顶部 返回列表