找回密码

蓝光电影网

查看: 669|回复: 2

[纪录] K2之巅 The.Summit.2012.1080p.BluRay.x264.DTS-FGT 8.93GB

[复制链接]
蓝光币
511
发表于 2020-4-28 23:46:03 | 显示全部楼层 |阅读模式
K2之巅 The.Summit.2012.1080p.BluRay.x264.DTS-FGT 8.93GB-1.png

译  名 K2之巅
片  名 The Summit
年  代 2012
产  地 爱尔兰 / 英国 / 瑞典 / 美国
类  别 记载片
语  言 英语
上映日期 2013-10-04(美国)
IMDb评分  6.9/10 from 4358 users
IMDb链接  https://www.imdb.com/title/tt2363471
豆瓣评分 7.9/10 from 143 users
豆瓣链接 https://movie.douban.com/subject/14875577/
片  长 95分钟
导  演 Nick Ryan

标  签 记载片 | 爬山 | K2 | 冒险 | 爱尔兰 | 美国 | Documentary | 2012

简  介  

  On August 2008, twenty-four climbers from several international expeditions converged on High Camp of K2, the last stop before the summit of the most dangerous mountain on earth. Forty-eight hours later, eleven had been killed or had vanished, making it the worst K2 climbing disaster in history.
  At the heart of The Summit lies a mystery about one extraordinary man, Ger McDonnell. By all accounts, he was faced with a heart-breaking dilemma-- at the very limit of his mortal resources, he encountered a disastrous scene and a moral dilemma: three climbers tangled up in ropes and running out of time. In the death zone, above 8,000 metres, the body is literally dying with each passing second. Morality is skewed 180 degrees from the rest of life. When a climber falls or wanders off the trail, the unwritten code of the mountain is to leave them for dead. Had Ger McDonnell stuck to the climbers' code, he might still be alive.

获奖情况  

  第29届圣丹斯电影节(2013)
  评审团大奖 天下电影单元记载片(提名) Nick Ryan
  剪辑奖 天下电影单元记载片 Ben Stark

  第56届伦敦电影节(2012)
  最好记载片(提名)
  1. Video
  2. ID                                       : 1
  3. Format                                   : AVC
  4. Format/Info                              : Advanced Video Codec
  5. Format profile                           : [email protected]
  6. Format settings                          : CABAC / 4 Ref Frames
  7. Format settings, CABAC                   : Yes
  8. Format settings, Reference frames        : 4 frames
  9. Codec ID                                 : V_MPEG4/ISO/AVC
  10. Duration                                 : 1 h 38 min
  11. Bit rate                                 : 11.5 Mb/s
  12. Width                                    : 1 920 pixels
  13. Height                                   : 1 080 pixels
  14. Display aspect ratio                     : 16:9
  15. Frame rate mode                          : Constant
  16. Frame rate                               : 25.000 FPS
  17. Color space                              : YUV
  18. Chroma subsampling                       : 4:2:0
  19. Bit depth                                : 8 bits
  20. Scan type                                : Progressive
  21. Bits/(Pixel*Frame)                       : 0.222
  22. Stream size                              : 7.89 GiB (88%)
  23. Title                                    : The.Summit.2012.1080p.BluRay.x264.DTS-FGT
  24. Writing library                          : x264 core 148 r2748 97eaef2
  25. Encoding settings                        : cabac=1 / ref=4 / deblock=1:-2:-2 / analyse=0x3:0x113 / me=umh / subme=9 / psy=1 / psy_rd=1.00:0.15 / mixed_ref=1 / me_range=16 / chroma_me=1 / trellis=2 / 8x8dct=1 / cqm=0 / deadzone=21,11 / fast_pskip=1 / chroma_qp_offset=-3 / threads=24 / lookahead_threads=3 / sliced_threads=0 / nr=0 / decimate=1 / interlaced=0 / bluray_compat=0 / constrained_intra=0 / bframes=3 / b_pyramid=2 / b_adapt=1 / b_bias=0 / direct=3 / weightb=1 / open_gop=0 / weightp=2 / keyint=250 / keyint_min=25 / scenecut=40 / intra_refresh=0 / rc_lookahead=50 / rc=2pass / mbtree=1 / bitrate=11500 / ratetol=1.0 / qcomp=0.60 / qpmin=0 / qpmax=69 / qpstep=4 / cplxblur=20.0 / qblur=0.5 / vbv_maxrate=31250 / vbv_bufsize=31250 / nal_hrd=none / filler=0 / ip_ratio=1.40 / aq=1:1.00
  26. Language                                 : English
  27. Default                                  : Yes
  28. Forced                                   : No

  29. Audio
  30. ID                                       : 2
  31. Format                                   : DTS
  32. Format/Info                              : Digital Theater Systems
  33. Codec ID                                 : A_DTS
  34. Duration                                 : 1 h 38 min
  35. Bit rate mode                            : Constant
  36. Bit rate                                 : 1 509 kb/s
  37. Channel(s)                               : 6 channels
  38. Channel layout                           : C L R Ls Rs LFE
  39. Sampling rate                            : 48.0 kHz
  40. Frame rate                               : 93.750 FPS (512 SPF)
  41. Bit depth                                : 24 bits
  42. Compression mode                         : Lossy
  43. Stream size                              : 1.04 GiB (12%)
  44. Title                                    : The.Summit.2012.1080p.BluRay.x264.DTS-FGT
  45. Language                                 : English
  46. Default                                  : Yes
  47. Forced                                   : No

  48. Text
  49. ID                                       : 3
  50. Format                                   : UTF-8
  51. Codec ID                                 : S_TEXT/UTF8
  52. Codec ID/Info                            : UTF-8 Plain Text
  53. Duration                                 : 1 h 34 min
  54. Bit rate                                 : 70 b/s
  55. Count of elements                        : 1535
  56. Stream size                              : 48.8 KiB (0%)
  57. Language                                 : English
  58. Default                                  : Yes
  59. Forced                                   : No

  60. Menu
  61. 00:00:00.000                             : en:Chapter 01
  62. 00:10:04.840                             : en:Chapter 02
  63. 00:20:49.880                             : en:Chapter 03
  64. 00:28:55.320                             : en:Chapter 04
  65. 00:38:08.640                             : en:Chapter 05
  66. 00:46:45.640                             : en:Chapter 06
  67. 00:56:33.480                             : en:Chapter 07
  68. 01:08:02.400                             : en:Chapter 08
  69. 01:17:19.800                             : en:Chapter 09
  70. 01:25:48.880                             : en:Chapter 10
  71. 01:36:35.000                             : en:Chapter 11
复制代码

K2之巅 The.Summit.2012.1080p.BluRay.x264.DTS-FGT 8.93GB-2.png K2之巅 The.Summit.2012.1080p.BluRay.x264.DTS-FGT 8.93GB-3.png K2之巅 The.Summit.2012.1080p.BluRay.x264.DTS-FGT 8.93GB-4.png







回复

使用道具 举报

蓝光币
636
发表于 2020-4-29 09:12:58 | 显示全部楼层
谢谢楼主无私分享。
回复 支持 反对

使用道具 举报

懒得打字嘛,点击右侧快捷回复 【右侧内容,后台自定义】
您需要登录后才可以回帖 登录 | 立即加入

本版积分规则

Archiver|小黑屋| 蓝光电影网 |网站地图

Copyright © 2021 Comsenz Inc. Powered by 蓝光电影网

蓝光电影网

本站内容由用户自主分享和转载自互联网,转载目的在于传递更多信息,并不代表本网赞同其观点和对其真实性负责。

如有侵权、违反国家法律政策行为,请联系我们,我们会第一时间及时清除和处理!

举报反馈邮箱:[email protected]

快速回复 返回顶部 返回列表