找回密码

蓝光电影网

查看: 722|回复: 4

[动画] 普罗米亚 Promare.2019.JAPANESE.1080p.BluRay.x264.DTS-FGT 11.24GB

[复制链接]
蓝光币
519
发表于 2020-4-28 23:56:58 | 显示全部楼层 |阅读模式
普罗米亚 Promare.2019.JAPANESE.1080p.BluRay.x264.DTS-FGT 11.24GB-1.png

译  名 普罗米亚 / PROMARE / 普羅米亞的火燄(港)
片  名 プロメア
年  代 2019
产  地 日本
类  别 剧情 / 行动 / 科幻 / 动画
语  言 日语
上映日期 2019-05-24(日本)
IMDb评分  7.3/10 from 1290 users
IMDb链接  https://www.imdb.com/title/tt9116358
豆瓣评分 8.4/10 from 11848 users
豆瓣链接 https://movie.douban.com/subject/27080656/
片  长 111分钟
导  演 今石洋之 Hiroyuki Imaishi
编  剧 中岛一树 Kazuki Nakashima
主  演 松山研一 Ken'ichi Matsuyama
       早乙女太一 Taichi Saotome
       堺雅人 Masato Sakai
       佐仓绫音 Ayane Sakura
       吉野裕行 Hiroyuki Yoshino
       稻田彻 Tetsu Inada
       新谷真弓 Mayumi Shintani
       小山力也 Rikiya Koyama
       小清水亚美 Ami Koshimizu
       楠大典 Taiten Kusunoki
       桧山修之 Nobuyuki Hiyama
       小西克幸 Katsuyuki Konishi
       柚木凉香 Ry?ka Yuzuki
       古田新太 Arata Furuta
       小林剑道 Kobayashi Kendo


标  签 日本 | 动画 | 动漫 | 科幻 | 热血 | 燃 | 2019 | 戏院版

简  介  

  天下大炎日的三十年後,變種人MadB u r n i s h四出縱火,與「高機動消防隊」上演命運之對決,意外掲發獨裁政治家的人類流亡(滅亡)計劃。今石洋之為《新世紀福音戰士》擔任過原畫,執導的動畫長篇《天元冲破》被捧為神作。螢光和粉色系的運用、艷麗的卡通衬着、電腦和手繪風格的撞擊、凌厲分鏡與機械人超炫變身等獨門招數,加上「很是燃」的人物故事對白,今石洋之是動畫界最纷歧樣煙火的存在。首部長片即能邀來松山研一、堺雅人聲演,不愧為年度最期待的熱血機械人高文。

获奖情况  

  第47届动画安妮奖(2020)
  最好自力动画长片(提名)
  1. Video
  2. ID                                       : 1
  3. Format                                   : AVC
  4. Format/Info                              : Advanced Video Codec
  5. Format profile                           : [email protected]
  6. Format settings                          : CABAC / 4 Ref Frames
  7. Format settings, CABAC                   : Yes
  8. Format settings, Reference frames        : 4 frames
  9. Codec ID                                 : V_MPEG4/ISO/AVC
  10. Duration                                 : 1 h 51 min
  11. Bit rate                                 : 11.5 Mb/s
  12. Width                                    : 1 920 pixels
  13. Height                                   : 1 080 pixels
  14. Display aspect ratio                     : 16:9
  15. Frame rate mode                          : Constant
  16. Frame rate                               : 23.976 (24000/1001/189150) FPS
  17. Color space                              : YUV
  18. Chroma subsampling                       : 4:2:0
  19. Bit depth                                : 8 bits
  20. Scan type                                : Progressive
  21. Bits/(Pixel*Frame)                       : 0.231
  22. Stream size                              : 8.90 GiB (79%)
  23. Title                                    : Promare.2019.JAPANESE.1080p.BluRay.x264.DTS-FGT
  24. Writing library                          : x264 core 148 r2748 97eaef2
  25. Encoding settings                        : cabac=1 / ref=4 / deblock=1:1:1 / analyse=0x3:0x113 / me=umh / subme=8 / psy=1 / psy_rd=0.50:0.00 / mixed_ref=1 / me_range=32 / chroma_me=1 / trellis=2 / 8x8dct=1 / cqm=0 / deadzone=21,11 / fast_pskip=1 / chroma_qp_offset=-2 / threads=72 / lookahead_threads=3 / sliced_threads=0 / nr=0 / decimate=1 / interlaced=0 / bluray_compat=0 / constrained_intra=0 / bframes=3 / b_pyramid=2 / b_adapt=1 / b_bias=0 / direct=3 / weightb=1 / open_gop=0 / weightp=2 / keyint=240 / keyint_min=24 / scenecut=40 / intra_refresh=0 / rc_lookahead=50 / rc=2pass / mbtree=1 / bitrate=11500 / ratetol=1.0 / qcomp=0.60 / qpmin=0 / qpmax=69 / qpstep=4 / cplxblur=20.0 / qblur=0.5 / vbv_maxrate=31250 / vbv_bufsize=31250 / nal_hrd=none / filler=0 / ip_ratio=1.40 / aq=3:0.60
  26. Default                                  : Yes
  27. Forced                                   : No

  28. Audio #1
  29. ID                                       : 2
  30. Format                                   : DTS
  31. Format/Info                              : Digital Theater Systems
  32. Codec ID                                 : A_DTS
  33. Duration                                 : 1 h 51 min
  34. Bit rate mode                            : Constant
  35. Bit rate                                 : 1 509 kb/s
  36. Channel(s)                               : 6 channels
  37. Channel layout                           : C L R Ls Rs LFE
  38. Sampling rate                            : 48.0 kHz
  39. Frame rate                               : 93.750 FPS (512 SPF)
  40. Bit depth                                : 24 bits
  41. Compression mode                         : Lossy
  42. Stream size                              : 1.17 GiB (10%)
  43. Title                                    : Promare.2019.JAPANESE.1080p.BluRay.x264.DTS-FGT
  44. Language                                 : Japanese
  45. Default                                  : Yes
  46. Forced                                   : No

  47. Audio #2
  48. ID                                       : 3
  49. Format                                   : DTS
  50. Format/Info                              : Digital Theater Systems
  51. Codec ID                                 : A_DTS
  52. Duration                                 : 1 h 51 min
  53. Bit rate mode                            : Constant
  54. Bit rate                                 : 1 509 kb/s
  55. Channel(s)                               : 2 channels
  56. Channel layout                           : L R
  57. Sampling rate                            : 48.0 kHz
  58. Frame rate                               : 93.750 FPS (512 SPF)
  59. Bit depth                                : 16 bits
  60. Compression mode                         : Lossy
  61. Stream size                              : 1.17 GiB (10%)
  62. Title                                    : Promare.2019.JAPANESE.1080p.BluRay.x264.DTS-FGT
  63. Language                                 : English
  64. Default                                  : No
  65. Forced                                   : No

  66. Text #1
  67. ID                                       : 4
  68. Format                                   : UTF-8
  69. Codec ID                                 : S_TEXT/UTF8
  70. Codec ID/Info                            : UTF-8 Plain Text
  71. Duration                                 : 1 h 43 min
  72. Bit rate                                 : 50 b/s
  73. Count of elements                        : 1307
  74. Stream size                              : 38.3 KiB (0%)
  75. Language                                 : English
  76. Default                                  : Yes
  77. Forced                                   : No

  78. Text #2
  79. ID                                       : 5
  80. Format                                   : UTF-8
  81. Codec ID                                 : S_TEXT/UTF8
  82. Codec ID/Info                            : UTF-8 Plain Text
  83. Duration                                 : 1 h 42 min
  84. Bit rate                                 : 2 b/s
  85. Count of elements                        : 50
  86. Stream size                              : 1.98 KiB (0%)
  87. Language                                 : English
  88. Default                                  : No
  89. Forced                                   : No

  90. Menu
  91. 00:00:00.000                             : en:Chapter 01
  92. 00:04:12.502                             : en:Chapter 02
  93. 00:08:42.439                             : en:Chapter 03
  94. 00:14:24.655                             : en:Chapter 04
  95. 00:19:25.122                             : en:Chapter 05
  96. 00:21:59.318                             : en:Chapter 06
  97. 00:23:43.005                             : en:Chapter 07
  98. 00:27:12.464                             : en:Chapter 08
  99. 00:29:35.607                             : en:Chapter 09
  100. 00:31:30.722                             : en:Chapter 10
  101. 00:34:13.385                             : en:Chapter 11
  102. 00:40:25.923                             : en:Chapter 12
  103. 00:47:27.845                             : en:Chapter 13
  104. 00:52:22.139                             : en:Chapter 14
  105. 00:53:54.106                             : en:Chapter 15
  106. 00:57:05.297                             : en:Chapter 16
  107. 01:04:14.267                             : en:Chapter 17
  108. 01:10:20.258                             : en:Chapter 18
  109. 01:15:08.671                             : en:Chapter 19
  110. 01:21:04.818                             : en:Chapter 20
  111. 01:26:54.376                             : en:Chapter 21
  112. 01:32:06.479                             : en:Chapter 22
  113. 01:36:58.021                             : en:Chapter 23
  114. 01:40:28.981                             : en:Chapter 24
  115. 01:44:00.276                             : en:Chapter 25
  116. 01:45:11.347                             : en:Chapter 26
  117. 01:46:29.258                             : en:Chapter 27
复制代码

普罗米亚 Promare.2019.JAPANESE.1080p.BluRay.x264.DTS-FGT 11.24GB-2.png 普罗米亚 Promare.2019.JAPANESE.1080p.BluRay.x264.DTS-FGT 11.24GB-3.png 普罗米亚 Promare.2019.JAPANESE.1080p.BluRay.x264.DTS-FGT 11.24GB-4.png







回复

使用道具 举报

蓝光币
337
发表于 2020-5-19 18:43:59 | 显示全部楼层

这个帖子不回对不起自己!我想我是一天也不能离开蓝光电影网
回复 支持 反对

使用道具 举报

懒得打字嘛,点击右侧快捷回复 【右侧内容,后台自定义】
您需要登录后才可以回帖 登录 | 立即加入

本版积分规则

Archiver|小黑屋| 蓝光电影网 |网站地图

Copyright © 2021 Comsenz Inc. Powered by 蓝光电影网

蓝光电影网

本站内容由用户自主分享和转载自互联网,转载目的在于传递更多信息,并不代表本网赞同其观点和对其真实性负责。

如有侵权、违反国家法律政策行为,请联系我们,我们会第一时间及时清除和处理!

举报反馈邮箱:[email protected]

快速回复 返回顶部 返回列表