找回密码

蓝光电影网

查看: 221|回复: 1

[恐怖] 血量子/屍家禁地 Blood.Quantum.2019.1080p.AMZN.WEBRip.DD5.1.x264-NTG 6.28GB

[复制链接]
蓝光币
511
发表于 2020-4-29 21:48:25 | 显示全部楼层 |阅读模式
血量子/屍家禁地 Blood.Quantum.2019.1080p.AMZN.WEBRip.DD5.1.x264-NTG 6.28GB-1.png

译  名 血量子 / 屍家禁地(台)
片  名 Blood Quantum
年  代 2019
产  地 加拿大
类  别 可骇
语  言 英语 / 米克马克语
上映日期 2019-09-05(多伦多电影节)
IMDb评分  5.4/10 from 202 users
IMDb链接  https://www.imdb.com/title/tt7394674
豆瓣评分 0/10 from 0 users
豆瓣链接 https://movie.douban.com/subject/33432158/
片  长 96分钟
导  演 杰夫·巴纳比 Jeff Barnaby
编  剧 杰夫·巴纳比 Jeff Barnaby
主  演 麦克尔·格雷耶斯 Michael Greyeyes
       Elle-Máijá Tailfeathers
       福勒斯特·古德勒克 Forrest Goodluck
       凯欧瓦·高登 Kiowa Gordon
       奥利维亚·斯克里文 Olivia Scriven
       Stonehorse Lone Goeman
       Brandon Oakes
       威廉·贝勒 William Belleau
       德芙丽·雅各布斯 Devery Jacobs
       加利·法梅尔 Gary Farmer
       费利西亚·舒尔曼 Felicia Shulman
       Lake Delisle
       特洛文·海斯 Trevor Hayes
       Marc Assiniwi
       Natalie Liconti


标  签 血腥 | 可骇 | 加拿大电影 | 丧尸 | PB-BusanC半夜豪情单元 | 电影 | 加拿大 | 二星

简  介  

  The dead are coming back to life outside the isolated Mi'gMaq reserve of Red Crow, except for its Indigenous inhabitants who are strangely immune to the zombie plague.
  1. Video
  2. ID                                       : 1
  3. Format                                   : AVC
  4. Format/Info                              : Advanced Video Codec
  5. Format profile                           : [email protected]
  6. Format settings                          : CABAC / 4 Ref Frames
  7. Format settings, CABAC                   : Yes
  8. Format settings, Reference frames        : 4 frames
  9. Codec ID                                 : V_MPEG4/ISO/AVC
  10. Duration                                 : 1 h 37 min
  11. Bit rate mode                            : Constant
  12. Bit rate                                 : 8 799 kb/s
  13. Nominal bit rate                         : 10 000 kb/s
  14. Width                                    : 1 920 pixels
  15. Height                                   : 1 080 pixels
  16. Display aspect ratio                     : 16:9
  17. Frame rate mode                          : Constant
  18. Frame rate                               : 23.976 (24000/1001/189150) FPS
  19. Color space                              : YUV
  20. Chroma subsampling                       : 4:2:0
  21. Bit depth                                : 8 bits
  22. Scan type                                : Progressive
  23. Bits/(Pixel*Frame)                       : 0.177
  24. Stream size                              : 6.02 GiB (96%)
  25. Default                                  : Yes
  26. Forced                                   : No
  27. Color range                              : Limited
  28. Color primaries                          : BT.709
  29. Transfer characteristics                 : BT.709
  30. Matrix coefficients                      : BT.709

  31. Audio
  32. ID                                       : 2
  33. Format                                   : AC-3
  34. Format/Info                              : Audio Coding 3
  35. Commercial name                          : Dolby Digital
  36. Codec ID                                 : A_AC3
  37. Duration                                 : 1 h 37 min
  38. Bit rate mode                            : Constant
  39. Bit rate                                 : 384 kb/s
  40. Channel(s)                               : 6 channels
  41. Channel layout                           : L R C LFE Ls Rs
  42. Sampling rate                            : 48.0 kHz
  43. Frame rate                               : 31.250 FPS (1536 SPF)
  44. Bit depth                                : 16 bits
  45. Compression mode                         : Lossy
  46. Stream size                              : 269 MiB (4%)
  47. Language                                 : English
  48. Service kind                             : Complete Main
  49. Default                                  : Yes
  50. Forced                                   : No

  51. Text #1
  52. ID                                       : 3
  53. Format                                   : UTF-8
  54. Codec ID                                 : S_TEXT/UTF8
  55. Codec ID/Info                            : UTF-8 Plain Text
  56. Duration                                 : 1 h 34 min
  57. Bit rate                                 : 40 b/s
  58. Count of elements                        : 982
  59. Stream size                              : 28.3 KiB (0%)
  60. Language                                 : English
  61. Default                                  : No
  62. Forced                                   : No

  63. Text #2
  64. ID                                       : 4
  65. Format                                   : UTF-8
  66. Codec ID                                 : S_TEXT/UTF8
  67. Codec ID/Info                            : UTF-8 Plain Text
  68. Duration                                 : 1 h 37 min
  69. Bit rate                                 : 46 b/s
  70. Count of elements                        : 1417
  71. Stream size                              : 33.1 KiB (0%)
  72. Title                                    : SDH
  73. Language                                 : English
  74. Default                                  : No
  75. Forced                                   : No

  76. Menu
  77. 00:00:00.000                             : en:1
  78. 00:06:06.300                             : en:2
  79. 00:11:55.300                             : en:3
  80. 00:18:05.300                             : en:4
  81. 00:24:21.300                             : en:5
  82. 00:30:08.300                             : en:6
  83. 00:38:30.300                             : en:7
  84. 00:45:03.300                             : en:8
  85. 00:53:08.300                             : en:9
  86. 00:59:35.300                             : en:10
  87. 01:06:04.300                             : en:11
  88. 01:10:32.300                             : en:12
  89. 01:16:16.300                             : en:13
  90. 01:22:26.300                             : en:14
  91. 01:27:18.300                             : en:15
  92. 01:34:34.300                             : en:16
复制代码

血量子/屍家禁地 Blood.Quantum.2019.1080p.AMZN.WEBRip.DD5.1.x264-NTG 6.28GB-2.png 血量子/屍家禁地 Blood.Quantum.2019.1080p.AMZN.WEBRip.DD5.1.x264-NTG 6.28GB-3.png 血量子/屍家禁地 Blood.Quantum.2019.1080p.AMZN.WEBRip.DD5.1.x264-NTG 6.28GB-4.png







回复

使用道具 举报

懒得打字嘛,点击右侧快捷回复 【右侧内容,后台自定义】
您需要登录后才可以回帖 登录 | 立即加入

本版积分规则

Archiver|小黑屋| 蓝光电影网 |网站地图

Copyright © 2021 Comsenz Inc. Powered by 蓝光电影网

蓝光电影网

本站内容由用户自主分享和转载自互联网,转载目的在于传递更多信息,并不代表本网赞同其观点和对其真实性负责。

如有侵权、违反国家法律政策行为,请联系我们,我们会第一时间及时清除和处理!

举报反馈邮箱:[email protected]

快速回复 返回顶部 返回列表