找回密码

蓝光电影网

查看: 261|回复: 0

[剧情] 奥罗拉 Aurora.2019.PROPER.720p.BluRay.x264-FUTURiSTiC 4.52GB

[复制链接]
蓝光币
515
发表于 2020-4-29 21:49:57 | 显示全部楼层 |阅读模式
奥罗拉 Aurora.2019.PROPER.720p.BluRay.x264-FUTURiSTiC 4.52GB-1.png

译  名 奥罗拉 / Aurora
片  名 Aurora
年  代 2019
产  地 芬兰
类  别 剧情 / 笑剧 / 恋爱
语  言 芬兰语 / 英语 / 波斯语
上映日期 2019-01-25(芬兰)
IMDb评分  6.9/10 from 638 users
IMDb链接  https://www.imdb.com/title/tt8553606
豆瓣评分 0/10 from 0 users
豆瓣链接 https://movie.douban.com/subject/30301262/
片  长 106分钟
导  演 Miia Tervo
编  剧 Miia Tervo
主  演 Mimosa Willamo
       Oona Airola
       Hannu-Pekka Bj?rkman
       Ria Kataja
       Chike Ohanwe
       Miitta Sorvali


标  签 芬兰 | [歐美] | 2019 | 1080P

简  介  

  一天早晨,奥罗拉(Aurora)在拉普兰的一个热狗摊上碰到了伊朗人达里安(Darian)。达里何在回避灭亡,奥罗拉在回避爱。他们需要相互才能终极停止奔驰。
  1. Video
  2. ID                                       : 1
  3. Format                                   : AVC
  4. Format/Info                              : Advanced Video Codec
  5. Format profile                           : [email protected]
  6. Format settings                          : CABAC / 12 Ref Frames
  7. Format settings, CABAC                   : Yes
  8. Format settings, Reference frames        : 12 frames
  9. Codec ID                                 : V_MPEG4/ISO/AVC
  10. Duration                                 : 1 h 45 min
  11. Bit rate                                 : 5 456 kb/s
  12. Width                                    : 1 280 pixels
  13. Height                                   : 534 pixels
  14. Display aspect ratio                     : 2.40:1
  15. Frame rate mode                          : Constant
  16. Frame rate                               : 23.976 (24000/1001/189150) FPS
  17. Color space                              : YUV
  18. Chroma subsampling                       : 4:2:0
  19. Bit depth                                : 8 bits
  20. Scan type                                : Progressive
  21. Bits/(Pixel*Frame)                       : 0.333
  22. Stream size                              : 4.02 GiB (89%)
  23. Writing library                          : x264 core 160 r3000 33f9e14
  24. Encoding settings                        : cabac=1 / ref=12 / deblock=1:-3:-3 / analyse=0x3:0x133 / me=umh / subme=10 / psy=1 / psy_rd=1.00:0.00 / mixed_ref=1 / me_range=24 / chroma_me=1 / trellis=2 / 8x8dct=1 / cqm=0 / deadzone=21,11 / fast_pskip=0 / chroma_qp_offset=-2 / threads=17 / lookahead_threads=2 / sliced_threads=0 / nr=0 / decimate=1 / interlaced=0 / bluray_compat=0 / constrained_intra=0 / bframes=8 / b_pyramid=2 / b_adapt=2 / b_bias=0 / direct=3 / weightb=1 / open_gop=0 / weightp=2 / keyint=250 / keyint_min=23 / scenecut=40 / intra_refresh=0 / rc=crf / mbtree=0 / crf=16.0 / qcomp=0.60 / qpmin=0 / qpmax=69 / qpstep=4 / ip_ratio=1.40 / pb_ratio=1.30 / aq=3:0.80
  25. Default                                  : Yes
  26. Forced                                   : No

  27. Audio
  28. ID                                       : 2
  29. Format                                   : AC-3
  30. Format/Info                              : Audio Coding 3
  31. Commercial name                          : Dolby Digital
  32. Codec ID                                 : A_AC3
  33. Duration                                 : 1 h 45 min
  34. Bit rate mode                            : Constant
  35. Bit rate                                 : 640 kb/s
  36. Channel(s)                               : 6 channels
  37. Channel layout                           : L R C LFE Ls Rs
  38. Sampling rate                            : 48.0 kHz
  39. Frame rate                               : 31.250 FPS (1536 SPF)
  40. Bit depth                                : 16 bits
  41. Compression mode                         : Lossy
  42. Stream size                              : 483 MiB (10%)
  43. Language                                 : Finnish
  44. Service kind                             : Complete Main
  45. Default                                  : Yes
  46. Forced                                   : No

  47. Text #1
  48. ID                                       : 3
  49. Format                                   : UTF-8
  50. Codec ID                                 : S_TEXT/UTF8
  51. Codec ID/Info                            : UTF-8 Plain Text
  52. Duration                                 : 1 h 41 min
  53. Bit rate                                 : 20 b/s
  54. Count of elements                        : 470
  55. Stream size                              : 15.1 KiB (0%)
  56. Title                                    : Full SRT
  57. Language                                 : English
  58. Default                                  : Yes
  59. Forced                                   : Yes

  60. Text #2
  61. ID                                       : 4
  62. Format                                   : PGS
  63. Muxing mode                              : zlib
  64. Codec ID                                 : S_HDMV/PGS
  65. Codec ID/Info                            : Picture based subtitle format used on BDs/HD-DVDs
  66. Duration                                 : 1 h 41 min
  67. Bit rate                                 : 9 375 b/s
  68. Count of elements                        : 940
  69. Stream size                              : 6.79 MiB (0%)
  70. Title                                    : Full PGS
  71. Language                                 : English
  72. Default                                  : No
  73. Forced                                   : No

  74. Text #3
  75. ID                                       : 5
  76. Format                                   : PGS
  77. Muxing mode                              : zlib
  78. Codec ID                                 : S_HDMV/PGS
  79. Codec ID/Info                            : Picture based subtitle format used on BDs/HD-DVDs
  80. Duration                                 : 1 h 33 min
  81. Bit rate                                 : 11.0 kb/s
  82. Count of elements                        : 1134
  83. Stream size                              : 7.40 MiB (0%)
  84. Title                                    : Forced PGS
  85. Language                                 : Finnish
  86. Default                                  : No
  87. Forced                                   : No

  88. Text #4
  89. ID                                       : 6
  90. Format                                   : PGS
  91. Muxing mode                              : zlib
  92. Codec ID                                 : S_HDMV/PGS
  93. Codec ID/Info                            : Picture based subtitle format used on BDs/HD-DVDs
  94. Duration                                 : 1 h 41 min
  95. Bit rate                                 : 17.0 kb/s
  96. Count of elements                        : 1976
  97. Stream size                              : 12.3 MiB (0%)
  98. Title                                    : Full PGS
  99. Language                                 : Danish
  100. Default                                  : No
  101. Forced                                   : No

  102. Text #5
  103. ID                                       : 7
  104. Format                                   : PGS
  105. Muxing mode                              : zlib
  106. Codec ID                                 : S_HDMV/PGS
  107. Codec ID/Info                            : Picture based subtitle format used on BDs/HD-DVDs
  108. Duration                                 : 1 h 41 min
  109. Bit rate                                 : 18.3 kb/s
  110. Count of elements                        : 2004
  111. Stream size                              : 13.3 MiB (0%)
  112. Title                                    : Full PGS
  113. Language                                 : Norwegian
  114. Default                                  : No
  115. Forced                                   : No

  116. Text #6
  117. ID                                       : 8
  118. Format                                   : PGS
  119. Muxing mode                              : zlib
  120. Codec ID                                 : S_HDMV/PGS
  121. Codec ID/Info                            : Picture based subtitle format used on BDs/HD-DVDs
  122. Duration                                 : 1 h 41 min
  123. Bit rate                                 : 17.7 kb/s
  124. Count of elements                        : 1970
  125. Stream size                              : 12.8 MiB (0%)
  126. Title                                    : Full PGS
  127. Language                                 : Swedish
  128. Default                                  : No
  129. Forced                                   : No

  130. Text #7
  131. ID                                       : 9
  132. Format                                   : PGS
  133. Muxing mode                              : zlib
  134. Codec ID                                 : S_HDMV/PGS
  135. Codec ID/Info                            : Picture based subtitle format used on BDs/HD-DVDs
  136. Duration                                 : 1 h 40 min
  137. Bit rate                                 : 23.1 kb/s
  138. Count of elements                        : 2186
  139. Stream size                              : 16.7 MiB (0%)
  140. Title                                    : SDH PGS
  141. Language                                 : Finnish
  142. Default                                  : No
  143. Forced                                   : No

  144. Menu
  145. 00:00:00.000                             : en:Chapter 01
  146. 00:10:59.993                             : en:Chapter 02
  147. 00:14:59.232                             : en:Chapter 03
  148. 00:23:38.208                             : en:Chapter 04
  149. 00:31:23.715                             : en:Chapter 05
  150. 00:49:31.510                             : en:Chapter 06
  151. 00:55:12.976                             : en:Chapter 07
  152. 01:08:03.830                             : en:Chapter 08
  153. 01:15:07.920                             : en:Chapter 09
  154. 01:32:25.874                             : en:Chapter 10
  155. 01:36:45.842                             : en:Chapter 11
  156. 01:41:06.602                             : en:Chapter 12
复制代码

奥罗拉 Aurora.2019.PROPER.720p.BluRay.x264-FUTURiSTiC 4.52GB-2.png







回复

使用道具 举报

懒得打字嘛,点击右侧快捷回复 【右侧内容,后台自定义】
您需要登录后才可以回帖 登录 | 立即加入

本版积分规则

Archiver|小黑屋| 蓝光电影网 |网站地图

Copyright © 2021 Comsenz Inc. Powered by 蓝光电影网

蓝光电影网

本站内容由用户自主分享和转载自互联网,转载目的在于传递更多信息,并不代表本网赞同其观点和对其真实性负责。

如有侵权、违反国家法律政策行为,请联系我们,我们会第一时间及时清除和处理!

举报反馈邮箱:[email protected]

快速回复 返回顶部 返回列表