找回密码

蓝光电影网

查看: 527|回复: 2

[剧情] 奇迹 Mr.Canton.And.Lady.Rose.1989.DUBBED.INTERNATIONAL.CUT.720p.BluRay.x264-CREEPSHOW 6.56GB

[复制链接]
蓝光币
511
发表于 2020-4-29 21:51:24 | 显示全部楼层 |阅读模式
奇迹 Mr.Canton.And.Lady.Rose.1989.DUBBED.INTERNATIONAL.CUT.720p.BluRay.x264-CREEPSHOW 6.56GB-1.png

译  名 奇迹 / Black Dragon / Miracles / Mr. Canton and Lady Rose / The Canton Godfather / 替人的传闻
片  名 奇蹟
年  代 1989
产  地 中国香港
类  别 剧情 / 笑剧 / 行动 / 犯罪
语  言 粤语 / 英语
上映日期 1989-06-15(中国香港)
IMDb评分  7.1/10 from 4220 users
IMDb链接  https://www.imdb.com/title/tt0098019
豆瓣评分 7.9/10 from 21196 users
豆瓣链接 https://movie.douban.com/subject/1293941/
片  长 127分钟
导  演 成龙 Jackie Chan
编  剧 成龙 Jackie Chan / 邓景生 Edward Tang
主  演 成龙 Jackie Chan
       梅艳芳 Anita Mui
       归亚蕾 Ya-lei Kuei
       柯俊雄 Chun Hsiung Ko
       午马 Wu Ma
       董骠 Bill Tung


标  签 成龙 | 行动 | 香港 | 笑剧 | 梅艳芳 | 香港电影 | 1989 | 电影

简  介  

  青年郭振华(成龙 饰)赴港谋求成长,路见不服之下卷入两派黑帮争斗,却鬼使神差做了帮派年老,郭振华深思此一段奇遇,发觉是街边卖花的玫瑰夫人(归亚蕾 饰)将好运带给了自己,自此谈判、出门前总要采办玫瑰夫人的玫瑰以求心安。郭振华将帮派所属丽池饭馆改成夜总会经营,饭馆前任老板之女杨露明(梅艳芳 饰)出于还债在夜总会表演成果大红大紫,郭杨二人更成长出了一段爱情。觊觎夜总会买卖多时的福建帮频频向郭振华举事,郭自始自终向玫瑰夫人求运,意外发现玫瑰夫人正身陷更大的麻烦,本来她为使外地的女儿安心念书编造了自己堂皇的身份,而眼下终究面临揭穿,郭出于感激帮助玫瑰夫人圆谎,由此激发了连环笑料……
  本片按照Frank Capra的作品《一日贵妇》改编,大量香港明星在本片中客串表演。

获奖情况  

  第26届台北金马影展(1989)
  金马奖 最好男配角(提名) 成龙
  金马奖 最好摄影(提名) 黄岳泰
  金马奖 最好美术设想(提名) 马磐超
  金马奖 最好外型设想(提名) 马磐超
  金马奖 最好剪辑(提名) 张耀宗

  第9届香港电影金像奖(1990)
  最好男配角(提名) 成龙
  最好剪接(提名) 张耀宗
  最好美术指导(提名) 马磐超
  最好行动设想
  1. Video
  2. ID                                       : 1
  3. Format                                   : AVC
  4. Format/Info                              : Advanced Video Codec
  5. Format profile                           : [email protected]
  6. Format settings                          : CABAC / 5 Ref Frames
  7. Format settings, CABAC                   : Yes
  8. Format settings, Reference frames        : 5 frames
  9. Codec ID                                 : V_MPEG4/ISO/AVC
  10. Duration                                 : 1 h 46 min
  11. Bit rate                                 : 7 294 kb/s
  12. Width                                    : 1 280 pixels
  13. Height                                   : 544 pixels
  14. Display aspect ratio                     : 2.35:1
  15. Frame rate mode                          : Constant
  16. Frame rate                               : 23.976 (24000/1001/189150) FPS
  17. Color space                              : YUV
  18. Chroma subsampling                       : 4:2:0
  19. Bit depth                                : 8 bits
  20. Scan type                                : Progressive
  21. Bits/(Pixel*Frame)                       : 0.437
  22. Stream size                              : 5.43 GiB (83%)
  23. Writing library                          : x264 core 160 r3000 33f9e14
  24. Encoding settings                        : cabac=1 / ref=5 / deblock=1:-2:-2 / analyse=0x3:0x133 / me=umh / subme=9 / psy=1 / psy_rd=1.00:0.00 / mixed_ref=1 / me_range=16 / chroma_me=1 / trellis=2 / 8x8dct=1 / cqm=0 / deadzone=21,11 / fast_pskip=0 / chroma_qp_offset=-2 / threads=12 / lookahead_threads=1 / sliced_threads=0 / nr=0 / decimate=1 / interlaced=0 / bluray_compat=0 / constrained_intra=0 / bframes=3 / b_pyramid=2 / b_adapt=2 / b_bias=0 / direct=3 / weightb=1 / open_gop=0 / weightp=2 / keyint=240 / keyint_min=23 / scenecut=40 / intra_refresh=0 / rc_lookahead=50 / rc=2pass / mbtree=1 / bitrate=7294 / ratetol=1.0 / qcomp=0.60 / qpmin=0 / qpmax=69 / qpstep=4 / cplxblur=20.0 / qblur=0.5 / vbv_maxrate=62500 / vbv_bufsize=78125 / nal_hrd=none / filler=0 / ip_ratio=1.40 / aq=1:0.70
  25. Default                                  : Yes
  26. Forced                                   : No

  27. Audio
  28. ID                                       : 2
  29. Format                                   : DTS
  30. Format/Info                              : Digital Theater Systems
  31. Codec ID                                 : A_DTS
  32. Duration                                 : 1 h 46 min
  33. Bit rate mode                            : Constant
  34. Bit rate                                 : 1 509 kb/s
  35. Channel(s)                               : 2 channels
  36. Channel layout                           : L R
  37. Sampling rate                            : 48.0 kHz
  38. Frame rate                               : 93.750 FPS (512 SPF)
  39. Bit depth                                : 24 bits
  40. Compression mode                         : Lossy
  41. Stream size                              : 1.12 GiB (17%)
  42. Language                                 : English
  43. Default                                  : Yes
  44. Forced                                   : No

  45. Menu
  46. 00:00:00.000                             : en:Chapter 01
  47. 00:07:01.171                             : en:Chapter 02
  48. 00:12:23.117                             : en:Chapter 03
  49. 00:19:01.891                             : en:Chapter 04
  50. 00:28:40.802                             : en:Chapter 05
  51. 00:37:08.601                             : en:Chapter 06
  52. 00:49:18.914                             : en:Chapter 07
  53. 01:02:55.438                             : en:Chapter 08
  54. 01:16:39.929                             : en:Chapter 09
  55. 01:27:38.920                             : en:Chapter 10
  56. 01:38:22.230                             : en:Chapter 11
  57. 01:43:06.806                             : en:Chapter 12
复制代码

奇迹 Mr.Canton.And.Lady.Rose.1989.DUBBED.INTERNATIONAL.CUT.720p.BluRay.x264-CREEPSHOW 6.56GB-2.png







回复

使用道具 举报

蓝光币
35
发表于 2021-1-15 22:05:27 来自手机 | 显示全部楼层
粤语  听不懂
回复 支持 反对

使用道具 举报

蓝光币
35
发表于 2021-8-14 09:42:38 来自手机 | 显示全部楼层
国语还是粤语
回复 支持 反对

使用道具 举报

懒得打字嘛,点击右侧快捷回复 【右侧内容,后台自定义】
您需要登录后才可以回帖 登录 | 立即加入

本版积分规则

Archiver|小黑屋| 蓝光电影网 |网站地图

Copyright © 2021 Comsenz Inc. Powered by 蓝光电影网

蓝光电影网

本站内容由用户自主分享和转载自互联网,转载目的在于传递更多信息,并不代表本网赞同其观点和对其真实性负责。

如有侵权、违反国家法律政策行为,请联系我们,我们会第一时间及时清除和处理!

举报反馈邮箱:[email protected]

快速回复 返回顶部 返回列表