找回密码

蓝光电影网

查看: 231|回复: 0

[恐怖] 恶魔娜塔丽 Luciferina.2018.SPANISH.ENSUBBED.1080p.AMZN.WEBRip.DDP2.0.x264-NTG 6.51GB

[复制链接]
蓝光币
511
发表于 2020-4-29 21:56:52 | 显示全部楼层 |阅读模式
恶魔娜塔丽 Luciferina.2018.SPANISH.ENSUBBED.1080p.AMZN.WEBRip.DDP2.0.x264-NTG 6.51GB-1.png

译  名 恶魔娜塔丽
片  名 Luciferina
年  代 2018
产  地 阿根廷
类  别 可骇
语  言 西班牙语
上映日期 2018-03-15(阿根廷)
IMDb评分  4.6/10 from 382 users
IMDb链接  https://www.imdb.com/title/tt8072078
豆瓣评分 0/10 from 0 users
豆瓣链接 https://movie.douban.com/subject/30162651/
导  演 Gonzalo Calzada
编  剧 Gonzalo Calzada
主  演 Victoria Carreras
       Gastón Cocchiarale
       Agustin Daulte


标  签 驱魔 | 阿根廷电影 | 阿根廷 | 灵异 | 惊悚 | 情色 | 可骇 | 宗教

简  介  

  Natalia is a 19-year-old novice who reluctantly returns home to say goodbye to her dying father. But when she meets up with her sister and her friends, she decides instead to travel the jungle in search of mystical plant. There, instead of pleasure, they find a world of Black Masses, strange pregnancies, bloody deaths and for the nun herself, a sexually violent clash with the Devil himself.
  1. Video
  2. ID                                       : 1
  3. Format                                   : AVC
  4. Format/Info                              : Advanced Video Codec
  5. Format profile                           : [email protected]
  6. Format settings                          : CABAC / 4 Ref Frames
  7. Format settings, CABAC                   : Yes
  8. Format settings, Reference frames        : 4 frames
  9. Codec ID                                 : V_MPEG4/ISO/AVC
  10. Duration                                 : 1 h 54 min
  11. Bit rate mode                            : Constant
  12. Bit rate                                 : 7 890 kb/s
  13. Nominal bit rate                         : 10 000 kb/s
  14. Width                                    : 1 920 pixels
  15. Height                                   : 1 080 pixels
  16. Display aspect ratio                     : 16:9
  17. Frame rate mode                          : Constant
  18. Frame rate                               : 24.000 FPS
  19. Color space                              : YUV
  20. Chroma subsampling                       : 4:2:0
  21. Bit depth                                : 8 bits
  22. Scan type                                : Progressive
  23. Bits/(Pixel*Frame)                       : 0.159
  24. Stream size                              : 6.33 GiB (97%)
  25. Default                                  : Yes
  26. Forced                                   : No
  27. Color range                              : Limited
  28. Color primaries                          : BT.709
  29. Transfer characteristics                 : BT.709
  30. Matrix coefficients                      : BT.709

  31. Audio
  32. ID                                       : 2
  33. Format                                   : E-AC-3
  34. Format/Info                              : Enhanced AC-3
  35. Commercial name                          : Dolby Digital Plus
  36. Codec ID                                 : A_EAC3
  37. Duration                                 : 1 h 54 min
  38. Bit rate mode                            : Constant
  39. Bit rate                                 : 224 kb/s
  40. Channel(s)                               : 2 channels
  41. Channel layout                           : L R
  42. Sampling rate                            : 48.0 kHz
  43. Frame rate                               : 31.250 FPS (1536 SPF)
  44. Compression mode                         : Lossy
  45. Stream size                              : 184 MiB (3%)
  46. Language                                 : Spanish
  47. Service kind                             : Complete Main
  48. Default                                  : Yes
  49. Forced                                   : No
复制代码

恶魔娜塔丽 Luciferina.2018.SPANISH.ENSUBBED.1080p.AMZN.WEBRip.DDP2.0.x264-NTG 6.51GB-2.png 恶魔娜塔丽 Luciferina.2018.SPANISH.ENSUBBED.1080p.AMZN.WEBRip.DDP2.0.x264-NTG 6.51GB-3.png 恶魔娜塔丽 Luciferina.2018.SPANISH.ENSUBBED.1080p.AMZN.WEBRip.DDP2.0.x264-NTG 6.51GB-4.png







回复

使用道具 举报

懒得打字嘛,点击右侧快捷回复 【右侧内容,后台自定义】
您需要登录后才可以回帖 登录 | 立即加入

本版积分规则

Archiver|小黑屋| 蓝光电影网 |网站地图

Copyright © 2021 Comsenz Inc. Powered by 蓝光电影网

蓝光电影网

本站内容由用户自主分享和转载自互联网,转载目的在于传递更多信息,并不代表本网赞同其观点和对其真实性负责。

如有侵权、违反国家法律政策行为,请联系我们,我们会第一时间及时清除和处理!

举报反馈邮箱:[email protected]

快速回复 返回顶部 返回列表