找回密码

蓝光电影网

查看: 610|回复: 0

[喜剧] 结婚纪念日/大喜之日 The.Wedding.Date.2005.1080p.BluRay.x264.DTS-FGT 8.09GB

[复制链接]
蓝光币
519
发表于 2020-4-30 10:45:12 | 显示全部楼层 |阅读模式
成婚纪念日/大喜之日 The.Wedding.Date.2005.1080p.BluRay.x264.DTS-FGT 8.09GB-1.png

译  名 成婚纪念日 / 大喜之日
片  名 The Wedding Date
年  代 2005
产  地 美国
类  别 笑剧 / 恋爱
语  言 英语
上映日期 2005-02-04(美国)
IMDb评分  6.2/10 from 46895 users
IMDb链接  https://www.imdb.com/title/tt0372532
豆瓣评分 6.4/10 from 1934 users
豆瓣链接 https://movie.douban.com/subject/1308985/
片  长 90 分钟
导  演 Clare Kilner
编  剧 Dana Fox / Elizabeth Young
主  演 黛博拉·梅辛 Debra Messing
       德蒙特·莫罗尼 Dermot Mulroney
       艾米·亚当斯 Amy Adams
       杰克·达文波特 Jack Davenport
       莎拉·帕里什 Sarah Parish
       杰瑞米·席菲德 Jeremy Sheffield
       Peter Egan
       霍兰德·泰勒 Holland Taylor


标  签 恋爱 | 美国 | 笑剧 | 美国电影 | 浪漫 | 2005 | 电影 | Wedding

简  介  

  妹妹艾米(艾米·亚当斯 Amy Adams 饰)成婚的消息本应当让凯特(黛博拉·梅辛 Debra Messing 饰)感应兴奋,但得知婚礼的伴郎居然是已经抛弃过自己的亏心汉时,已经的那种恨之入骨的豪情又东山复兴。难道真的要形单影只的看着大师沉醉在浪漫的氛围中吗?凯挺拔誓决不让这样惨无人道的工作发生!一个动机在凯特的脑海中逐步清楚起来。
  几番周折后,凯特雇佣了姑且男友尼克(德蒙特·莫罗尼 Dermot Mulroney 饰),文质彬彬又英俊帅气的尼克很快就赢得了凯特怙恃以及亲人的热烈接待,就连凯特自己也被尼克那不知是真是假的柔情和关切所感动了,一种奇妙的豪情在这对以金钱维系着关系的男女之间发生了。
  1. Video
  2. ID                                       : 1
  3. Format                                   : AVC
  4. Format/Info                              : Advanced Video Codec
  5. Format profile                           : [email protected]
  6. Format settings                          : CABAC / 4 Ref Frames
  7. Format settings, CABAC                   : Yes
  8. Format settings, Reference frames        : 4 frames
  9. Codec ID                                 : V_MPEG4/ISO/AVC
  10. Duration                                 : 1 h 29 min
  11. Bit rate                                 : 11.5 Mb/s
  12. Width                                    : 1 920 pixels
  13. Height                                   : 1 040 pixels
  14. Display aspect ratio                     : 1.85:1
  15. Frame rate mode                          : Constant
  16. Frame rate                               : 23.976 (24000/1001/189150) FPS
  17. Color space                              : YUV
  18. Chroma subsampling                       : 4:2:0
  19. Bit depth                                : 8 bits
  20. Scan type                                : Progressive
  21. Bits/(Pixel*Frame)                       : 0.240
  22. Stream size                              : 7.15 GiB (88%)
  23. Title                                    : The.Wedding.Date.2005.1080p.BluRay.x264.DTS-FGT
  24. Writing library                          : x264 core 148 r2748 97eaef2
  25. Encoding settings                        : cabac=1 / ref=4 / deblock=1:-2:-2 / analyse=0x3:0x113 / me=umh / subme=9 / psy=1 / psy_rd=1.00:0.15 / mixed_ref=1 / me_range=16 / chroma_me=1 / trellis=2 / 8x8dct=1 / cqm=0 / deadzone=21,11 / fast_pskip=1 / chroma_qp_offset=-3 / threads=72 / lookahead_threads=3 / sliced_threads=0 / nr=0 / decimate=1 / interlaced=0 / bluray_compat=0 / constrained_intra=0 / bframes=3 / b_pyramid=2 / b_adapt=1 / b_bias=0 / direct=3 / weightb=1 / open_gop=0 / weightp=2 / keyint=250 / keyint_min=25 / scenecut=40 / intra_refresh=0 / rc_lookahead=50 / rc=2pass / mbtree=1 / bitrate=11500 / ratetol=1.0 / qcomp=0.60 / qpmin=0 / qpmax=69 / qpstep=4 / cplxblur=20.0 / qblur=0.5 / vbv_maxrate=31250 / vbv_bufsize=31250 / nal_hrd=none / filler=0 / ip_ratio=1.40 / aq=1:1.00
  26. Language                                 : English
  27. Default                                  : Yes
  28. Forced                                   : No

  29. Audio
  30. ID                                       : 2
  31. Format                                   : DTS
  32. Format/Info                              : Digital Theater Systems
  33. Codec ID                                 : A_DTS
  34. Duration                                 : 1 h 29 min
  35. Bit rate mode                            : Constant
  36. Bit rate                                 : 1 509 kb/s
  37. Channel(s)                               : 6 channels
  38. Channel layout                           : C L R Ls Rs LFE
  39. Sampling rate                            : 48.0 kHz
  40. Frame rate                               : 93.750 FPS (512 SPF)
  41. Bit depth                                : 24 bits
  42. Compression mode                         : Lossy
  43. Stream size                              : 961 MiB (12%)
  44. Title                                    : The.Wedding.Date.2005.1080p.BluRay.x264.DTS-FGT
  45. Language                                 : English
  46. Default                                  : Yes
  47. Forced                                   : No

  48. Text
  49. ID                                       : 3
  50. Format                                   : UTF-8
  51. Codec ID                                 : S_TEXT/UTF8
  52. Codec ID/Info                            : UTF-8 Plain Text
  53. Duration                                 : 1 h 20 min
  54. Bit rate                                 : 54 b/s
  55. Count of elements                        : 1000
  56. Stream size                              : 32.3 KiB (0%)
  57. Language                                 : English
  58. Default                                  : Yes
  59. Forced                                   : No

  60. Menu
  61. 00:00:00.000                             : en:00:00:00.000
  62. 00:10:00.600                             : en:00:10:00.600
  63. 00:20:01.200                             : en:00:20:01.200
  64. 00:30:01.800                             : en:00:30:01.800
  65. 00:40:02.400                             : en:00:40:02.400
  66. 00:50:03.000                             : en:00:50:03.000
  67. 01:00:03.600                             : en:01:00:03.600
  68. 01:10:04.200                             : en:01:10:04.200
  69. 01:20:04.800                             : en:01:20:04.800
复制代码

成婚纪念日/大喜之日 The.Wedding.Date.2005.1080p.BluRay.x264.DTS-FGT 8.09GB-2.png 成婚纪念日/大喜之日 The.Wedding.Date.2005.1080p.BluRay.x264.DTS-FGT 8.09GB-3.png 成婚纪念日/大喜之日 The.Wedding.Date.2005.1080p.BluRay.x264.DTS-FGT 8.09GB-4.png






回复

使用道具 举报

懒得打字嘛,点击右侧快捷回复 【右侧内容,后台自定义】
您需要登录后才可以回帖 登录 | 立即加入

本版积分规则

Archiver|小黑屋| 蓝光电影网 |网站地图

Copyright © 2021 Comsenz Inc. Powered by 蓝光电影网

蓝光电影网

本站内容由用户自主分享和转载自互联网,转载目的在于传递更多信息,并不代表本网赞同其观点和对其真实性负责。

如有侵权、违反国家法律政策行为,请联系我们,我们会第一时间及时清除和处理!

举报反馈邮箱:[email protected]

快速回复 返回顶部 返回列表