找回密码

蓝光电影网

查看: 357|回复: 1

[恐怖] 狼人游戏 Game.of.Werewolves.2011.1080p.BluRay.x264-RedBlade 7.95GB

[复制链接]
蓝光币
519
发表于 2020-4-30 10:46:07 | 显示全部楼层 |阅读模式
狼人游戏 Game.of.Werewolves.2011.1080p.BluRay.x264-RedBlade 7.95GB-1.png

译  名 狼人游戏 / Game of Werewolves / 恶狼传闻
片  名 Lobos de Arga
年  代 2011
产  地 西班牙
类  别 可骇
语  言 西班牙语
上映日期 2011
IMDb评分  6.0/10 from 2169 users
IMDb链接  https://www.imdb.com/title/tt1650555
豆瓣评分 5.4/10 from 153 users
豆瓣链接 https://movie.douban.com/subject/5152276/
片  长 102分钟
导  演 Juan Martínez Moreno
编  剧 Juan Martínez Moreno
主  演 卡洛斯·阿雷塞斯 Carlos Areces
       戈卡·奥特沙 Gorka Otxoa
       塞康·德拉罗萨 Secun de la Rosa
       玛贝尔·里维拉 Mabel Rivera


标  签 笑剧 | 西班牙 | 可骇 | 狼人 | 西班牙电影 | 惊悚 | 惊悚可骇 | 2011

简  介  

  名叫托马斯·马里诺(戈卡·奥特沙 Gorka Otxoa 饰)的男人是一个绝不著名的作家,却获邀返回阔别已有二十年之久的故乡,位于加利西亚(Galicia)的偏僻村落阿尔加。他自15岁分开,可是时代的空缺很快被熟悉的故乡气味和乡亲们自始自终的热情所填满。但是村民的和睦很快便为狰狞的面孔所取代,托马斯遭到绑缚,落空自在,这一切全与20世纪初当地传播的女侯爵以及可骇诅咒有关。似乎为了消除小镇的诅咒,托马斯和他那倒霉的书稿代理商成为奉献给狼人的牺牲品……
  本片荣获2012年葡萄牙奇异电影节影评人挑选奖、2012年亚洲奇异电影节观众奖、2011年圣塞巴斯蒂安可骇与奇异电影节观众奖最好影片奖。
  1. Video
  2. ID                                       : 1
  3. Format                                   : AVC
  4. Format/Info                              : Advanced Video Codec
  5. Format profile                           : [email protected]
  6. Format settings                          : CABAC / 5 Ref Frames
  7. Format settings, CABAC                   : Yes
  8. Format settings, Reference frames        : 5 frames
  9. Codec ID                                 : V_MPEG4/ISO/AVC
  10. Duration                                 : 1 h 42 min
  11. Bit rate                                 : 9 658 kb/s
  12. Width                                    : 1 920 pixels
  13. Height                                   : 816 pixels
  14. Display aspect ratio                     : 2.35:1
  15. Frame rate mode                          : Constant
  16. Frame rate                               : 24.000 FPS
  17. Color space                              : YUV
  18. Chroma subsampling                       : 4:2:0
  19. Bit depth                                : 8 bits
  20. Scan type                                : Progressive
  21. Bits/(Pixel*Frame)                       : 0.257
  22. Stream size                              : 6.71 GiB (84%)
  23. Writing library                          : x264 core 128 r2216 198a7ea
  24. Encoding settings                        : cabac=1 / ref=5 / deblock=1:0:0 / analyse=0x3:0x2 / me=umh / subme=7 / psy=1 / psy_rd=1.00:0.00 / mixed_ref=1 / me_range=16 / chroma_me=1 / trellis=1 / 8x8dct=1 / cqm=0 / deadzone=21,11 / fast_pskip=1 / chroma_qp_offset=-2 / threads=6 / lookahead_threads=1 / sliced_threads=0 / nr=0 / decimate=1 / interlaced=0 / bluray_compat=0 / constrained_intra=0 / bframes=3 / b_pyramid=2 / b_adapt=1 / b_bias=0 / direct=1 / weightb=0 / open_gop=0 / weightp=2 / keyint=240 / keyint_min=24 / scenecut=40 / intra_refresh=0 / rc=2pass / mbtree=0 / bitrate=9658 / ratetol=1.0 / qcomp=0.60 / qpmin=10 / qpmax=51 / qpstep=4 / cplxblur=20.0 / qblur=0.5 / ip_ratio=1.40 / pb_ratio=1.30 / aq=1:1.00
  25. Language                                 : English
  26. Default                                  : Yes
  27. Forced                                   : No

  28. Audio
  29. ID                                       : 2
  30. Format                                   : DTS
  31. Format/Info                              : Digital Theater Systems
  32. Codec ID                                 : A_DTS
  33. Duration                                 : 1 h 42 min
  34. Bit rate mode                            : Constant
  35. Bit rate                                 : 1 509 kb/s
  36. Channel(s)                               : 6 channels
  37. Channel layout                           : C L R Ls Rs LFE
  38. Sampling rate                            : 48.0 kHz
  39. Frame rate                               : 93.750 FPS (512 SPF)
  40. Bit depth                                : 24 bits
  41. Compression mode                         : Lossy
  42. Stream size                              : 1.08 GiB (14%)
  43. Language                                 : Spanish
  44. Default                                  : Yes
  45. Forced                                   : No

  46. Text
  47. ID                                       : 3
  48. Format                                   : UTF-8
  49. Codec ID                                 : S_TEXT/UTF8
  50. Codec ID/Info                            : UTF-8 Plain Text
  51. Language                                 : English
  52. Default                                  : Yes
  53. Forced                                   : No
复制代码

狼人游戏 Game.of.Werewolves.2011.1080p.BluRay.x264-RedBlade 7.95GB-2.png 狼人游戏 Game.of.Werewolves.2011.1080p.BluRay.x264-RedBlade 7.95GB-3.png 狼人游戏 Game.of.Werewolves.2011.1080p.BluRay.x264-RedBlade 7.95GB-4.png






回复

使用道具 举报

蓝光币
337
发表于 2020-5-17 23:06:36 | 显示全部楼层

这个帖子不回对不起自己!我想我是一天也不能离开蓝光电影网
回复 支持 反对

使用道具 举报

懒得打字嘛,点击右侧快捷回复 【右侧内容,后台自定义】
您需要登录后才可以回帖 登录 | 立即加入

本版积分规则

Archiver|小黑屋| 蓝光电影网 |网站地图

Copyright © 2021 Comsenz Inc. Powered by 蓝光电影网

蓝光电影网

本站内容由用户自主分享和转载自互联网,转载目的在于传递更多信息,并不代表本网赞同其观点和对其真实性负责。

如有侵权、违反国家法律政策行为,请联系我们,我们会第一时间及时清除和处理!

举报反馈邮箱:[email protected]

快速回复 返回顶部 返回列表