找回密码

蓝光电影网

查看: 622|回复: 8

[动作] 夺帅 Triad.Wars.2008.CHINESE.1080p.BluRay.x264.DTS-HDH 10.37GB

[复制链接]
蓝光币
515
发表于 2020-4-30 10:47:31 | 显示全部楼层 |阅读模式
夺帅 Triad.Wars.2008.CHINESE.1080p.BluRay.x264.DTS-HDH 10.37GB-1.png

译  名 夺帅 / Fatal Move / 血战
片  名 奪帥
年  代 2008
产  地 中国香港
类  别 行动 / 犯罪
语  言 粤语 / 英语
上映日期 2008-02-28
IMDb评分  5.8/10 from 944 users
IMDb链接  https://www.imdb.com/title/tt1156444
豆瓣评分 6.3/10 from 18451 users
豆瓣链接 https://movie.douban.com/subject/2359450/
片  长 117分钟(完整版)
导  演 罗守耀
编  剧 罗守耀
主  演 洪金宝
       任达华
       吴京
       李修贤
       恬妞
       张兆辉
       卢惠光 Ken Lo
       邵美琪 Maggie Siu


标  签 行动 | 香港电影 | 香港 | 洪金宝 | 吴京 | 任达华 | 犯罪 | 夺帅

简  介  

  “忠信义”帮主连浩龙(洪金宝 饰)老来得子,风光地办了满月酒招待帮众。虽然孩子是他新纳小妾(张文慈 饰)生的,可是连浩龙妻子Soso(恬妞 饰)的进场还是颇具阿嫂风采。不外,由于酒席人数众多,引发骚乱。在警匪对峙之时,反黑组高级督察廖志宗(李修贤 饰)出头化解,避免了一场血战。
  弟弟连浩东(任达华 饰)嗜赌成性,是以连浩龙特地做局劝他罢手,共叙兄弟情谊。在一次三亿元毒品买卖却被差人捣破后,又发生了四叔(许绍雄饰)被绑架事务。警方的反黑行动令连浩龙的爪牙纷纷落马,仅剩下心慈手软功夫了得的骆天虹(吴京 饰)死里逃生。女警察雷美珍(邵美琪 饰)经过诱敌深入,获得了关键情报,警方拉开了收罗密布。与此同时,连浩龙也鲜明发现一路诞生入死的同党中害他的奸细,这小我也终极致使了“忠信义”与连浩龙的毁灭……
  1. Video
  2. ID                                       : 1
  3. Format                                   : AVC
  4. Format/Info                              : Advanced Video Codec
  5. Format profile                           : [email protected]
  6. Format settings                          : CABAC / 5 Ref Frames
  7. Format settings, CABAC                   : Yes
  8. Format settings, Reference frames        : 5 frames
  9. Codec ID                                 : V_MPEG4/ISO/AVC
  10. Duration                                 : 1 h 56 min
  11. Bit rate                                 : 11.2 Mb/s
  12. Width                                    : 1 920 pixels
  13. Height                                   : 816 pixels
  14. Display aspect ratio                     : 2.35:1
  15. Frame rate mode                          : Constant
  16. Frame rate                               : 24.000 FPS
  17. Color space                              : YUV
  18. Chroma subsampling                       : 4:2:0
  19. Bit depth                                : 8 bits
  20. Scan type                                : Progressive
  21. Bits/(Pixel*Frame)                       : 0.299
  22. Stream size                              : 9.14 GiB (88%)
  23. Writing library                          : x264 core 142 r2431+42 c69a006 tMod [[email protected]:2:0 X86_64]
  24. Encoding settings                        : cabac=1 / ref=5 / deblock=1:-3:-3 / analyse=0x3:0x113 / me=umh / subme=10 / psy=1 / fade_compensate=0.00 / psy_rd=1.00:0.05 / mixed_ref=1 / me_range=48 / chroma_me=1 / trellis=2 / 8x8dct=1 / cqm=0 / deadzone=21,11 / fast_pskip=0 / chroma_qp_offset=-2 / threads=48 / lookahead_threads=6 / sliced_threads=0 / nr=0 / decimate=1 / interlaced=0 / bluray_compat=0 / constrained_intra=0 / fgo=0 / bframes=8 / b_pyramid=2 / b_adapt=2 / b_bias=0 / direct=3 / weightb=1 / open_gop=0 / weightp=2 / keyint=250 / keyint_min=24 / scenecut=40 / intra_refresh=0 / rc_lookahead=40 / rc=crf / mbtree=0 / crf=19.0000 / qcomp=0.60 / qpmin=0:0:0 / qpmax=69:69:69 / qpstep=4 / vbv_maxrate=40000 / vbv_bufsize=30000 / crf_max=0.0 / nal_hrd=none / filler=0 / ip_ratio=1.40 / pb_ratio=1.30 / aq=3:0.80 / aq-sensitivity=10.00 / aq-factor=1.00:1.00:1.00 / aq2=0 / aq3=0
  25. Default                                  : Yes
  26. Forced                                   : No
  27. Color range                              : Limited
  28. Matrix coefficients                      : BT.709

  29. Audio
  30. ID                                       : 2
  31. Format                                   : DTS
  32. Format/Info                              : Digital Theater Systems
  33. Codec ID                                 : A_DTS
  34. Duration                                 : 1 h 56 min
  35. Bit rate mode                            : Constant
  36. Bit rate                                 : 1 509 kb/s
  37. Channel(s)                               : 6 channels
  38. Channel layout                           : C L R Ls Rs LFE
  39. Sampling rate                            : 48.0 kHz
  40. Frame rate                               : 93.750 FPS (512 SPF)
  41. Bit depth                                : 16 bits
  42. Compression mode                         : Lossy
  43. Stream size                              : 1.23 GiB (12%)
  44. Language                                 : Chinese
  45. Default                                  : Yes
  46. Forced                                   : No

  47. Text
  48. ID                                       : 3
  49. Format                                   : UTF-8
  50. Codec ID                                 : S_TEXT/UTF8
  51. Codec ID/Info                            : UTF-8 Plain Text
  52. Duration                                 : 1 h 51 min
  53. Bit rate                                 : 35 b/s
  54. Count of elements                        : 969
  55. Stream size                              : 28.8 KiB (0%)
  56. Language                                 : English
  57. Default                                  : Yes
  58. Forced                                   : No

  59. Menu
  60. 00:00:00.000                             : en:00:00:00.000
  61. 00:05:46.333                             : en:00:05:46.333
  62. 00:11:19.958                             : en:00:11:19.958
  63. 00:19:32.833                             : en:00:19:32.833
  64. 00:23:18.333                             : en:00:23:18.333
  65. 00:30:59.250                             : en:00:30:59.250
  66. 00:37:34.375                             : en:00:37:34.375
  67. 00:43:41.917                             : en:00:43:41.917
  68. 00:55:19.000                             : en:00:55:19.000
  69. 00:59:02.417                             : en:00:59:02.417
  70. 01:04:12.000                             : en:01:04:12.000
  71. 01:08:55.625                             : en:01:08:55.625
  72. 01:13:04.625                             : en:01:13:04.625
  73. 01:17:49.333                             : en:01:17:49.333
  74. 01:23:42.000                             : en:01:23:42.000
  75. 01:26:45.292                             : en:01:26:45.292
  76. 01:33:14.458                             : en:01:33:14.458
  77. 01:41:38.667                             : en:01:41:38.667
  78. 01:48:55.208                             : en:01:48:55.208
  79. 01:54:24.083                             : en:01:54:24.083
复制代码

夺帅 Triad.Wars.2008.CHINESE.1080p.BluRay.x264.DTS-HDH 10.37GB-2.png 夺帅 Triad.Wars.2008.CHINESE.1080p.BluRay.x264.DTS-HDH 10.37GB-3.png 夺帅 Triad.Wars.2008.CHINESE.1080p.BluRay.x264.DTS-HDH 10.37GB-4.png







回复

使用道具 举报

蓝光币
314
发表于 2020-5-1 15:47:04 | 显示全部楼层
谢谢楼主分享
回复 支持 反对

使用道具 举报

蓝光币
336
发表于 2020-5-2 08:39:27 | 显示全部楼层

~ 珍惜+支持 ~
回复

使用道具 举报

蓝光币
36
发表于 2020-8-2 13:22:22 | 显示全部楼层
谢谢楼主 辛苦了
回复 支持 反对

使用道具 举报

懒得打字嘛,点击右侧快捷回复 【右侧内容,后台自定义】
您需要登录后才可以回帖 登录 | 立即加入

本版积分规则

Archiver|小黑屋| 蓝光电影网 |网站地图

Copyright © 2021 Comsenz Inc. Powered by 蓝光电影网

蓝光电影网

本站内容由用户自主分享和转载自互联网,转载目的在于传递更多信息,并不代表本网赞同其观点和对其真实性负责。

如有侵权、违反国家法律政策行为,请联系我们,我们会第一时间及时清除和处理!

举报反馈邮箱:[email protected]

快速回复 返回顶部 返回列表