找回密码

蓝光电影网

查看: 234|回复: 2

[剧情] 金色大门 Falling.Up.2009.1080p.BluRay.x264.DTS-NOGRP 6.91GB

[复制链接]
蓝光币
515
发表于 2020-4-30 10:48:41 | 显示全部楼层 |阅读模式
金色大门 Falling.Up.2009.1080p.BluRay.x264.DTS-NOGRP 6.91GB-1.png

译  名 金色大门
片  名 Falling Up
年  代 2009
产  地 美国
类  别 剧情 / 笑剧 / 恋爱
语  言 英语
上映日期 2010-01-05
IMDb评分  5.6/10 from 2383 users
IMDb链接  https://www.imdb.com/title/tt1084955
豆瓣评分 0/10 from 0 users
豆瓣链接 https://movie.douban.com/subject/2251551/
片  长 98分钟
导  演 艾曼纽尔?克里亚勒斯 Emanuele Crialese
主  演 夏洛特?甘斯布 Charlotte Gainsbourg .....Lucia
       文森特?斯卡维利 Vincent Schiavelli
       安德列?波当 Andrea Prodan .....DelFiore


标  签 美国移民史 | 金色大门 | 浪漫 | 青春 | 西西里岛 | 美国 | Up | 恋爱

简  介  

  1913年,在一个荒凉的小岛上,西西里当地居民过着安静安逸的生活,一代代人在这片地盘辛苦劳动、繁衍生息。而这一切都被一个忽然到来的美国人打破了。这位镶着金牙的美国人处处游说着西西里的人们,说里面的天下是那末的富贵,在那边,人们是生活在天堂里,处处都是黄金,大家都是富翁。里面的天下的土豆有火车车箱那末大,胡萝卜像船那末长,树上结的都是金币,像树叶一样多量的飘落下来。不但如此,这个 “外来客”还拿出照片向这里人们证实他荒诞的话,还说他现在的使命就是陪伴那些分开了西西里,已经在富贵的天下中享用生活的人们。曼库索家属(西西里的居民之一)中的一位成员已经分开西西里到富贵天下去了,百口都在等他的消息,而这位美国人带来了他的消息。为了成为富贵新天下的百姓,西西里的人们必须放弃现有的生活状态才能获得更生。他们要放弃自己的信心信仰,放弃这片故里,要把本身练习得强健,要学会服从,只要成功地从“原始人”变成“现代人”,这样,才能穿越通往富贵新天下的金色大门。必须经过几周时候在陆地中艰辛的穿行,才能到达“眼泪岛”和“爱丽丝岛”——对他们停止终极考验的地方。新天下的守门人负责对他们停止逐项考验,他们的身心都要达“现在人”的要求。在这个通向天堂,但却像天堂的地方,很多家庭都要停止挑选,并不是每小我都能进入这个大门,而有些人,却是命运必定要经过黄金大门……
  1. Video
  2. ID                                       : 1
  3. Format                                   : AVC
  4. Format/Info                              : Advanced Video Codec
  5. Format profile                           : [email protected]
  6. Format settings                          : CABAC / 4 Ref Frames
  7. Format settings, CABAC                   : Yes
  8. Format settings, Reference frames        : 4 frames
  9. Codec ID                                 : V_MPEG4/ISO/AVC
  10. Duration                                 : 1 h 38 min
  11. Bit rate                                 : 8 538 kb/s
  12. Width                                    : 1 920 pixels
  13. Height                                   : 1 080 pixels
  14. Display aspect ratio                     : 16:9
  15. Frame rate mode                          : Constant
  16. Frame rate                               : 23.976 (24000/1001/189150) FPS
  17. Color space                              : YUV
  18. Chroma subsampling                       : 4:2:0
  19. Bit depth                                : 8 bits
  20. Scan type                                : Progressive
  21. Bits/(Pixel*Frame)                       : 0.172
  22. Stream size                              : 5.87 GiB (85%)
  23. Writing library                          : x264 core 130 r2273 b3065e6
  24. Encoding settings                        : cabac=1 / ref=4 / deblock=1:-1:-1 / analyse=0x3:0x133 / me=umh / subme=7 / psy=1 / psy_rd=1.00:0.00 / mixed_ref=1 / me_range=16 / chroma_me=1 / trellis=1 / 8x8dct=1 / cqm=0 / deadzone=21,11 / fast_pskip=0 / chroma_qp_offset=-1 / threads=12 / lookahead_threads=2 / sliced_threads=0 / nr=0 / decimate=1 / interlaced=0 / bluray_compat=0 / constrained_intra=0 / bframes=3 / b_pyramid=2 / b_adapt=1 / b_bias=0 / direct=1 / weightb=1 / open_gop=0 / weightp=2 / keyint=240 / keyint_min=23 / scenecut=40 / intra_refresh=0 / rc_lookahead=40 / rc=2pass / mbtree=1 / bitrate=8538 / ratetol=1.0 / qcomp=0.60 / qpmin=10 / qpmax=69 / qpstep=4 / cplxblur=20.0 / qblur=0.5 / ip_ratio=1.40 / aq=1:1.00
  25. Language                                 : English
  26. Default                                  : Yes
  27. Forced                                   : No

  28. Audio
  29. ID                                       : 2
  30. Format                                   : DTS
  31. Format/Info                              : Digital Theater Systems
  32. Codec ID                                 : A_DTS
  33. Duration                                 : 1 h 38 min
  34. Bit rate mode                            : Constant
  35. Bit rate                                 : 1 509 kb/s
  36. Channel(s)                               : 6 channels
  37. Channel layout                           : C L R Ls Rs LFE
  38. Sampling rate                            : 48.0 kHz
  39. Frame rate                               : 93.750 FPS (512 SPF)
  40. Bit depth                                : 16 bits
  41. Compression mode                         : Lossy
  42. Stream size                              : 1.04 GiB (15%)
  43. Language                                 : English
  44. Default                                  : Yes
  45. Forced                                   : No

  46. Menu
  47. 00:00:00.000                             : en:00:00:00.000
  48. 00:09:19.100                             : en:00:09:19.100
  49. 00:20:07.789                             : en:00:20:07.789
  50. 00:34:48.336                             : en:00:34:48.336
  51. 00:40:47.445                             : en:00:40:47.445
  52. 00:45:14.670                             : en:00:45:14.670
  53. 00:48:19.521                             : en:00:48:19.521
  54. 00:54:56.376                             : en:00:54:56.376
  55. 00:58:45.396                             : en:00:58:45.396
  56. 01:05:05.026                             : en:01:05:05.026
  57. 01:11:36.709                             : en:01:11:36.709
  58. 01:20:56.476                             : en:01:20:56.476
  59. 01:38:26.233                             : en:01:38:26.233
复制代码

金色大门 Falling.Up.2009.1080p.BluRay.x264.DTS-NOGRP 6.91GB-2.png 金色大门 Falling.Up.2009.1080p.BluRay.x264.DTS-NOGRP 6.91GB-3.png 金色大门 Falling.Up.2009.1080p.BluRay.x264.DTS-NOGRP 6.91GB-4.png







回复

使用道具 举报

蓝光币
378
发表于 2020-4-30 13:33:30 | 显示全部楼层

我看不错噢 谢谢楼主!蓝光电影网越来越好!
回复 支持 反对

使用道具 举报

蓝光币
70
发表于 2020-5-9 23:09:57 | 显示全部楼层

其实我一直觉得楼主的品味不错!呵呵!蓝光电影网太棒了!
回复 支持 反对

使用道具 举报

懒得打字嘛,点击右侧快捷回复 【右侧内容,后台自定义】
您需要登录后才可以回帖 登录 | 立即加入

本版积分规则

Archiver|小黑屋| 蓝光电影网 |网站地图

Copyright © 2021 Comsenz Inc. Powered by 蓝光电影网

蓝光电影网

本站内容由用户自主分享和转载自互联网,转载目的在于传递更多信息,并不代表本网赞同其观点和对其真实性负责。

如有侵权、违反国家法律政策行为,请联系我们,我们会第一时间及时清除和处理!

举报反馈邮箱:[email protected]

快速回复 返回顶部 返回列表