找回密码

蓝光电影网

查看: 415|回复: 1

[恐怖] 黑暗边缘 Edges.of.Darkness.2008.1080p.BluRay.x264-SWAGGERHD 5.46GB

[复制链接]
蓝光币
515
发表于 2020-4-30 10:50:35 | 显示全部楼层 |阅读模式
黑暗边沿 Edges.of.Darkness.2008.1080p.BluRay.x264-SWAGGERHD 5.46GB-1.png

译  名 黑暗边沿
片  名 Edge of Darkness
年  代 2009
产  地 美国
类  别 可骇
语  言 英语
上映日期 2009
IMDb评分  3.2/10 from 687 users
IMDb链接  https://www.imdb.com/title/tt1442498
豆瓣评分 3.2/10 from 117 users
豆瓣链接 https://movie.douban.com/subject/4120546/
片  长 USA: 87 分钟
导  演 Blaine Cade / Jason Horton
主  演 Alonzo F. Jones
       Shamika Ann Franklin
       Annemarie Pazmino


标  签 丧尸 | 美国 | 可骇 | 惊悚 | 美国电影 | 僵尸 | 悬疑 | 丧尸/僵尸

简  介  

  以丧尸末日以后为题材,穿插於三段看似不相关,但又有些少奥妙关係故事的电影《Edges of Darkness》,就是一套熔合吸血鬼与丧尸这两种以往很少作为首要卖点的可骇血腥电影。而其中一个故事就是报告一对吸血鬼情侣,怎样在满佈丧尸及日渐缺少食品来历〔即人类〕的情况中求存。此片虽然看似低本钱建造,但其题材算是风趣。
  1. Video
  2. ID                                       : 1
  3. Format                                   : AVC
  4. Format/Info                              : Advanced Video Codec
  5. Format profile                           : [email protected]
  6. Format settings                          : CABAC / 4 Ref Frames
  7. Format settings, CABAC                   : Yes
  8. Format settings, Reference frames        : 4 frames
  9. Codec ID                                 : V_MPEG4/ISO/AVC
  10. Duration                                 : 1 h 26 min
  11. Bit rate                                 : 8 263 kb/s
  12. Width                                    : 1 920 pixels
  13. Height                                   : 1 080 pixels
  14. Display aspect ratio                     : 16:9
  15. Frame rate mode                          : Constant
  16. Frame rate                               : 23.976 (24000/1001/189150) FPS
  17. Color space                              : YUV
  18. Chroma subsampling                       : 4:2:0
  19. Bit depth                                : 8 bits
  20. Scan type                                : Progressive
  21. Bits/(Pixel*Frame)                       : 0.166
  22. Stream size                              : 4.89 GiB (90%)
  23. Writing library                          : x264 core 130 r2273 b3065e6
  24. Encoding settings                        : cabac=1 / ref=4 / deblock=1:0:0 / analyse=0x3:0x133 / me=umh / subme=7 / psy=1 / psy_rd=1.00:0.00 / mixed_ref=1 / me_range=16 / chroma_me=1 / trellis=1 / 8x8dct=1 / cqm=0 / deadzone=21,11 / fast_pskip=0 / chroma_qp_offset=-1 / threads=12 / lookahead_threads=2 / sliced_threads=0 / nr=0 / decimate=1 / interlaced=0 / bluray_compat=0 / constrained_intra=0 / bframes=3 / b_pyramid=2 / b_adapt=1 / b_bias=0 / direct=3 / weightb=1 / open_gop=0 / weightp=2 / keyint=240 / keyint_min=23 / scenecut=40 / intra_refresh=0 / rc_lookahead=40 / rc=2pass / mbtree=1 / bitrate=8263 / ratetol=1.0 / qcomp=0.60 / qpmin=10 / qpmax=51 / qpstep=4 / cplxblur=20.0 / qblur=0.5 / ip_ratio=1.40 / aq=1:1.00
  25. Language                                 : English
  26. Default                                  : Yes
  27. Forced                                   : No

  28. Audio
  29. ID                                       : 2
  30. Format                                   : DTS
  31. Format/Info                              : Digital Theater Systems
  32. Codec ID                                 : A_DTS
  33. Duration                                 : 1 h 26 min
  34. Bit rate mode                            : Constant
  35. Bit rate                                 : 768 kb/s
  36. Channel(s)                               : 2 channels
  37. Channel layout                           : L R
  38. Sampling rate                            : 48.0 kHz
  39. Frame rate                               : 93.750 FPS (512 SPF)
  40. Bit depth                                : 16 bits
  41. Compression mode                         : Lossy
  42. Stream size                              : 476 MiB (9%)
  43. Title                                    : ENGLISH DTS
  44. Language                                 : English
  45. Default                                  : Yes
  46. Forced                                   : No
复制代码

黑暗边沿 Edges.of.Darkness.2008.1080p.BluRay.x264-SWAGGERHD 5.46GB-2.png 黑暗边沿 Edges.of.Darkness.2008.1080p.BluRay.x264-SWAGGERHD 5.46GB-3.png 黑暗边沿 Edges.of.Darkness.2008.1080p.BluRay.x264-SWAGGERHD 5.46GB-4.png







回复

使用道具 举报

懒得打字嘛,点击右侧快捷回复 【右侧内容,后台自定义】
您需要登录后才可以回帖 登录 | 立即加入

本版积分规则

Archiver|小黑屋| 蓝光电影网 |网站地图

Copyright © 2021 Comsenz Inc. Powered by 蓝光电影网

蓝光电影网

本站内容由用户自主分享和转载自互联网,转载目的在于传递更多信息,并不代表本网赞同其观点和对其真实性负责。

如有侵权、违反国家法律政策行为,请联系我们,我们会第一时间及时清除和处理!

举报反馈邮箱:[email protected]

快速回复 返回顶部 返回列表