找回密码

蓝光电影网

查看: 393|回复: 1

[科幻] 神秘博士与戴立克/怪博士天外降魔 Dr.Who.and.the.Daleks.1965.1080p.BluRay.x264-SONiDO 5.46GB

[复制链接]
蓝光币
519
发表于 2020-4-30 10:51:44 | 显示全部楼层 |阅读模式
奥秘博士与戴立克/怪博士天外降魔 Dr.Who.and.the.Daleks.1965.1080p.BluRay.x264-SONiDO 5.46GB-1.png

译  名 奥秘博士与戴立克 / 怪博士天外降魔(港)
片  名 Doctor Who And The Daleks
年  代 1965
产  地 英国
类  别 科幻
语  言 英语
上映日期 1965-08-23
IMDb评分  5.8/10 from 3584 users
IMDb链接  https://www.imdb.com/title/tt0059126
豆瓣评分 0/10 from 0 users
豆瓣链接 https://movie.douban.com/subject/2567423/
片  长 82 分钟
导  演 Gordon Flemyng
编  剧 Terry Nation / Milton Subotsky
主  演 彼得·库欣 Peter Cushing


标  签 DoctorWho | 科幻 | 英国 | DW | 1965 | 英国电影 | 英剧 | 英國

简  介  

  An eccentric inventor and his companions travel in his Tardis to the Planet Skaro and battle the evil menace of the Daleks.
  1. Video
  2. ID                                       : 1
  3. Format                                   : AVC
  4. Format/Info                              : Advanced Video Codec
  5. Format profile                           : [email protected]
  6. Format settings                          : CABAC / 5 Ref Frames
  7. Format settings, CABAC                   : Yes
  8. Format settings, Reference frames        : 5 frames
  9. Codec ID                                 : V_MPEG4/ISO/AVC
  10. Duration                                 : 1 h 22 min
  11. Bit rate                                 : 8 774 kb/s
  12. Width                                    : 1 920 pixels
  13. Height                                   : 816 pixels
  14. Display aspect ratio                     : 2.35:1
  15. Frame rate mode                          : Constant
  16. Frame rate                               : 24.000 FPS
  17. Color space                              : YUV
  18. Chroma subsampling                       : 4:2:0
  19. Bit depth                                : 8 bits
  20. Scan type                                : Progressive
  21. Bits/(Pixel*Frame)                       : 0.233
  22. Stream size                              : 4.98 GiB (91%)
  23. Writing library                          : x264 core 133 r2334 a3ac64b
  24. Encoding settings                        : cabac=1 / ref=5 / deblock=1:0:0 / analyse=0x3:0x133 / me=umh / subme=7 / psy=1 / psy_rd=1.00:0.00 / mixed_ref=1 / me_range=16 / chroma_me=1 / trellis=1 / 8x8dct=1 / cqm=0 / deadzone=21,11 / fast_pskip=0 / chroma_qp_offset=-2 / threads=12 / lookahead_threads=2 / sliced_threads=0 / nr=0 / decimate=1 / interlaced=0 / bluray_compat=0 / constrained_intra=0 / bframes=3 / b_pyramid=2 / b_adapt=2 / b_bias=0 / direct=3 / weightb=1 / open_gop=0 / weightp=2 / keyint=250 / keyint_min=24 / scenecut=40 / intra_refresh=0 / rc_lookahead=50 / rc=2pass / mbtree=1 / bitrate=8774 / ratetol=1.0 / qcomp=0.60 / qpmin=0 / qpmax=69 / qpstep=4 / cplxblur=20.0 / qblur=0.5 / ip_ratio=1.40 / aq=1:1.00
  25. Language                                 : English
  26. Default                                  : Yes
  27. Forced                                   : No

  28. Audio
  29. ID                                       : 2
  30. Format                                   : AC-3
  31. Format/Info                              : Audio Coding 3
  32. Commercial name                          : Dolby Digital
  33. Codec ID                                 : A_AC3
  34. Duration                                 : 1 h 22 min
  35. Bit rate mode                            : Constant
  36. Bit rate                                 : 640 kb/s
  37. Channel(s)                               : 2 channels
  38. Channel layout                           : L R
  39. Sampling rate                            : 48.0 kHz
  40. Frame rate                               : 31.250 FPS (1536 SPF)
  41. Bit depth                                : 16 bits
  42. Compression mode                         : Lossy
  43. Stream size                              : 380 MiB (7%)
  44. Language                                 : English
  45. Service kind                             : Complete Main
  46. Default                                  : Yes
  47. Forced                                   : No

  48. Text
  49. ID                                       : 3
  50. Format                                   : UTF-8
  51. Codec ID                                 : S_TEXT/UTF8
  52. Codec ID/Info                            : UTF-8 Plain Text
  53. Language                                 : English
  54. Default                                  : Yes
  55. Forced                                   : No

  56. Menu
  57. 00:00:00.000                             : en:00:00:00.000
  58. 00:08:32.333                             : en:00:08:32.333
  59. 00:14:09.542                             : en:00:14:09.542
  60. 00:21:10.250                             : en:00:21:10.250
  61. 00:28:06.667                             : en:00:28:06.667
  62. 00:33:45.500                             : en:00:33:45.500
  63. 00:43:21.083                             : en:00:43:21.083
  64. 00:48:26.042                             : en:00:48:26.042
  65. 00:56:08.000                             : en:00:56:08.000
  66. 01:02:19.833                             : en:01:02:19.833
  67. 01:10:54.625                             : en:01:10:54.625
  68. 01:17:02.042                             : en:01:17:02.042
复制代码

奥秘博士与戴立克/怪博士天外降魔 Dr.Who.and.the.Daleks.1965.1080p.BluRay.x264-SONiDO 5.46GB-2.png 奥秘博士与戴立克/怪博士天外降魔 Dr.Who.and.the.Daleks.1965.1080p.BluRay.x264-SONiDO 5.46GB-3.png 奥秘博士与戴立克/怪博士天外降魔 Dr.Who.and.the.Daleks.1965.1080p.BluRay.x264-SONiDO 5.46GB-4.png







回复

使用道具 举报

懒得打字嘛,点击右侧快捷回复 【右侧内容,后台自定义】
您需要登录后才可以回帖 登录 | 立即加入

本版积分规则

Archiver|小黑屋| 蓝光电影网 |网站地图

Copyright © 2021 Comsenz Inc. Powered by 蓝光电影网

蓝光电影网

本站内容由用户自主分享和转载自互联网,转载目的在于传递更多信息,并不代表本网赞同其观点和对其真实性负责。

如有侵权、违反国家法律政策行为,请联系我们,我们会第一时间及时清除和处理!

举报反馈邮箱:[email protected]

快速回复 返回顶部 返回列表