找回密码

蓝光电影网

查看: 296|回复: 0

[科幻] 达莱克斯入侵地球 Daleks.Invasion.Earth.2150.A.D.1966.1080p.BluRay.x264-SONiDO 5.46GB

[复制链接]
蓝光币
515
发表于 2020-4-30 10:52:59 | 显示全部楼层 |阅读模式
达莱克斯入侵地球 Daleks.Invasion.Earth.2150.A.D.1966.1080p.BluRay.x264-SONiDO 5.46GB-1.png

译  名 达莱克斯入侵地球
片  名 Daleks' Invasion Earth: 2150 A.D.
年  代 1966
产  地 英国
类  别 科幻
语  言 英语
上映日期 1966-08-05
IMDb评分  6.1/10 from 3036 users
IMDb链接  https://www.imdb.com/title/tt0060278
豆瓣评分 7.0/10 from 93 users
豆瓣链接 https://movie.douban.com/subject/1829198/
片  长 81 分钟
导  演 Gordon Flemyng
编  剧 Terry Nation / Sydney Newman / Milton Subotsky
主  演 彼得·库欣 Peter Cushing
       伯纳德·克理宾斯 Bernard Cribbins
       Roberta Tovey
       雷·布鲁克斯 Ray Brooks
       Geoffrey Cheshire


标  签 科幻 | 英国 | 达莱克斯入侵地球 | DoctorWho | 英国电影 | 奥秘博士 | 外星入侵 | 电影

简  介  

  转自  翱翔网科幻论坛  http://bbs.flyine.net/forum-277-1.html
  按照BBC电视剧《Doctor Who(奥秘博士)》改编。一位叫做Tom Campbell的差人在个平常的日子里无意中闯入了TARDIS(全称译为“空间中的时候和相对标准”,是种可以穿越时空的太空船,原本外形可以随地点地的情况变化,伪装成与情况调和的工具,但博士的TARDIS因一次事务,外形牢固为1950年的蓝色公用电话警亭),成果被博士带到了2150年的地球。博士和他的助手发现,Dalek们侵犯了地球,还把人类革新成机械人,诡计对地球的焦点停止开采。幸存的人们在四周潜藏,避免被革新成机械人。博士把幸存者们构造起来,挫败了Dalek们的诡计。
  1. Video
  2. ID                                       : 1
  3. Format                                   : AVC
  4. Format/Info                              : Advanced Video Codec
  5. Format profile                           : [email protected]
  6. Format settings                          : CABAC / 5 Ref Frames
  7. Format settings, CABAC                   : Yes
  8. Format settings, Reference frames        : 5 frames
  9. Codec ID                                 : V_MPEG4/ISO/AVC
  10. Duration                                 : 1 h 24 min
  11. Bit rate                                 : 8 631 kb/s
  12. Width                                    : 1 920 pixels
  13. Height                                   : 816 pixels
  14. Display aspect ratio                     : 2.35:1
  15. Frame rate mode                          : Constant
  16. Frame rate                               : 24.000 FPS
  17. Color space                              : YUV
  18. Chroma subsampling                       : 4:2:0
  19. Bit depth                                : 8 bits
  20. Scan type                                : Progressive
  21. Bits/(Pixel*Frame)                       : 0.230
  22. Stream size                              : 4.97 GiB (91%)
  23. Writing library                          : x264 core 133 r2334 a3ac64b
  24. Encoding settings                        : cabac=1 / ref=5 / deblock=1:0:0 / analyse=0x3:0x133 / me=umh / subme=7 / psy=1 / psy_rd=1.00:0.00 / mixed_ref=1 / me_range=16 / chroma_me=1 / trellis=1 / 8x8dct=1 / cqm=0 / deadzone=21,11 / fast_pskip=0 / chroma_qp_offset=-2 / threads=12 / lookahead_threads=2 / sliced_threads=0 / nr=0 / decimate=1 / interlaced=0 / bluray_compat=0 / constrained_intra=0 / bframes=3 / b_pyramid=2 / b_adapt=2 / b_bias=0 / direct=3 / weightb=1 / open_gop=0 / weightp=2 / keyint=250 / keyint_min=24 / scenecut=40 / intra_refresh=0 / rc_lookahead=50 / rc=2pass / mbtree=1 / bitrate=8631 / ratetol=1.0 / qcomp=0.60 / qpmin=0 / qpmax=69 / qpstep=4 / cplxblur=20.0 / qblur=0.5 / ip_ratio=1.40 / aq=1:1.00
  25. Language                                 : English
  26. Default                                  : Yes
  27. Forced                                   : No

  28. Audio
  29. ID                                       : 2
  30. Format                                   : AC-3
  31. Format/Info                              : Audio Coding 3
  32. Commercial name                          : Dolby Digital
  33. Codec ID                                 : A_AC3
  34. Duration                                 : 1 h 24 min
  35. Bit rate mode                            : Constant
  36. Bit rate                                 : 640 kb/s
  37. Channel(s)                               : 2 channels
  38. Channel layout                           : L R
  39. Sampling rate                            : 48.0 kHz
  40. Frame rate                               : 31.250 FPS (1536 SPF)
  41. Bit depth                                : 16 bits
  42. Compression mode                         : Lossy
  43. Stream size                              : 386 MiB (7%)
  44. Language                                 : English
  45. Service kind                             : Complete Main
  46. Default                                  : Yes
  47. Forced                                   : No

  48. Text
  49. ID                                       : 3
  50. Format                                   : UTF-8
  51. Codec ID                                 : S_TEXT/UTF8
  52. Codec ID/Info                            : UTF-8 Plain Text
  53. Language                                 : English
  54. Default                                  : Yes
  55. Forced                                   : No

  56. Menu
  57. 00:00:00.000                             : en:00:00:00.000
  58. 00:08:08.000                             : en:00:08:08.000
  59. 00:15:19.167                             : en:00:15:19.167
  60. 00:22:43.625                             : en:00:22:43.625
  61. 00:31:43.500                             : en:00:31:43.500
  62. 00:38:05.208                             : en:00:38:05.208
  63. 00:45:16.000                             : en:00:45:16.000
  64. 00:51:13.000                             : en:00:51:13.000
  65. 00:57:23.333                             : en:00:57:23.333
  66. 01:03:15.625                             : en:01:03:15.625
  67. 01:10:48.542                             : en:01:10:48.542
  68. 01:19:02.708                             : en:01:19:02.708
复制代码

达莱克斯入侵地球 Daleks.Invasion.Earth.2150.A.D.1966.1080p.BluRay.x264-SONiDO 5.46GB-2.png 达莱克斯入侵地球 Daleks.Invasion.Earth.2150.A.D.1966.1080p.BluRay.x264-SONiDO 5.46GB-3.png 达莱克斯入侵地球 Daleks.Invasion.Earth.2150.A.D.1966.1080p.BluRay.x264-SONiDO 5.46GB-4.png







回复

使用道具 举报

懒得打字嘛,点击右侧快捷回复 【右侧内容,后台自定义】
您需要登录后才可以回帖 登录 | 立即加入

本版积分规则

Archiver|小黑屋| 蓝光电影网 |网站地图

Copyright © 2021 Comsenz Inc. Powered by 蓝光电影网

蓝光电影网

本站内容由用户自主分享和转载自互联网,转载目的在于传递更多信息,并不代表本网赞同其观点和对其真实性负责。

如有侵权、违反国家法律政策行为,请联系我们,我们会第一时间及时清除和处理!

举报反馈邮箱:[email protected]

快速回复 返回顶部 返回列表