找回密码

蓝光电影网

查看: 251|回复: 1

[纪录] 美国漫画史 Comic.Book.Confidential.1988.1080p.BluRay.x264-BiQ 6.55GB

[复制链接]
蓝光币
511
发表于 2020-4-30 10:53:53 | 显示全部楼层 |阅读模式
美国漫画史 Comic.Book.Confidential.1988.1080p.BluRay.x264-BiQ 6.55GB-1.png

译  名 美国漫画史
片  名 Comic Book Confidential
年  代 1988
产  地 加拿大 / 美国
类  别 记载片 / 历史
语  言 英语
上映日期 1988-09-10
IMDb评分  7.1/10 from 818 users
IMDb链接  https://www.imdb.com/title/tt0094897
豆瓣评分 8.1/10 from 81 users
豆瓣链接 https://movie.douban.com/subject/1755421/
片  长 90 分钟
导  演 Ron Mann
主  演 Lynda Barry
       Charles Burns
       Sue Coe
       斯坦·李 Stan Lee
       弗兰克·米勒 Frank Miller
       Harvey Pekar
       Robert Crumb


标  签 记载片 | 漫画 | 美国 | Documentary | 美国电影 | 1988 | 欧美 | Comic-History

简  介  

  n the 20th century, no artistic medium in North America with so much potential for creative expression has had a more turbulent history plagued with less respect than comic books. Through animated montages, readings and interviews, this film guides us through the history of the medium from the late 1930s and 1940s with the first explosion of popularity with the superheroes created by great talents like Jack Kirby and hitting its first artistic zenith with Will Eisner's "Spirit". It then shifts to the post war comics world with the rising popularity of crime and horror comics, especially those published by EC Comics under the editorshiop of William B. Gaines until it came crashing down the rise of censorship with the imposition of the Comics Code. In its wake of the devastation of the medium's creative freedom, we also explore EC's defiant survival with the creation of the singular "Mad Magazine" by Harvey Kurtzman. We then move to the resurgence of the superheroes in the late 1950's and 1960's typified with the rise of the dramatically innovative Marvel Comics edited by Stan Lee. Still more important is the rise of the the gleefully uninhibited underground comics created by eccentric talents like Robert Crumb and Dan O'Neill. These leads to profiles of creaters like Harvey Pekar who take the medium into new directions of expression. In the late 1970s and '80s we see the rise of alternative comics with such bold talents like Jaime Hernández for "Love and Rockets, Sue Coe for How to Commit Suicide in South Africa and especially for Art Spiegelman for his searing Pulitizer Prize winning Holocaust account, Maus. Finally, we learn of the medium's superhero mythos' revitalizing moment with the creation of Frank Miller's ferocious min-series "Batman: The Dark Knight Returns". Taken together, the film makes its arguement that the medium is far more than the stereotype of juvenile trash but rather it is an artform with a wild history and an exciting future.
  1. Video
  2. ID                                       : 1
  3. Format                                   : AVC
  4. Format/Info                              : Advanced Video Codec
  5. Format profile                           : [email protected]
  6. Format settings                          : CABAC / 4 Ref Frames
  7. Format settings, CABAC                   : Yes
  8. Format settings, Reference frames        : 4 frames
  9. Codec ID                                 : V_MPEG4/ISO/AVC
  10. Duration                                 : 1 h 25 min
  11. Bit rate                                 : 9 485 kb/s
  12. Width                                    : 1 920 pixels
  13. Height                                   : 1 080 pixels
  14. Display aspect ratio                     : 16:9
  15. Frame rate mode                          : Constant
  16. Frame rate                               : 23.976 (24000/1001/189150) FPS
  17. Color space                              : YUV
  18. Chroma subsampling                       : 4:2:0
  19. Bit depth                                : 8 bits
  20. Scan type                                : Progressive
  21. Bits/(Pixel*Frame)                       : 0.191
  22. Stream size                              : 5.52 GiB (84%)
  23. Writing library                          : x264 core 129 r2245 bc13772
  24. Encoding settings                        : cabac=1 / ref=4 / deblock=1:0:0 / analyse=0x3:0x133 / me=umh / subme=7 / psy=1 / psy_rd=1.00:0.00 / mixed_ref=1 / me_range=16 / chroma_me=1 / trellis=1 / 8x8dct=1 / cqm=0 / deadzone=21,11 / fast_pskip=0 / chroma_qp_offset=-2 / threads=6 / lookahead_threads=1 / sliced_threads=0 / nr=0 / decimate=1 / interlaced=0 / bluray_compat=0 / constrained_intra=0 / bframes=3 / b_pyramid=2 / b_adapt=1 / b_bias=0 / direct=1 / weightb=1 / open_gop=0 / weightp=2 / keyint=250 / keyint_min=23 / scenecut=40 / intra_refresh=0 / rc_lookahead=40 / rc=2pass / mbtree=1 / bitrate=9485 / ratetol=1.0 / qcomp=0.60 / qpmin=0 / qpmax=69 / qpstep=4 / cplxblur=20.0 / qblur=0.5 / ip_ratio=1.40 / aq=1:1.00
  25. Language                                 : English
  26. Default                                  : Yes
  27. Forced                                   : No

  28. Audio
  29. ID                                       : 2
  30. Format                                   : DTS
  31. Format/Info                              : Digital Theater Systems
  32. Codec ID                                 : A_DTS
  33. Duration                                 : 1 h 25 min
  34. Bit rate mode                            : Constant
  35. Bit rate                                 : 1 509 kb/s
  36. Channel(s)                               : 2 channels
  37. Channel layout                           : L R
  38. Sampling rate                            : 48.0 kHz
  39. Frame rate                               : 93.750 FPS (512 SPF)
  40. Bit depth                                : 24 bits
  41. Compression mode                         : Lossy
  42. Stream size                              : 922 MiB (14%)
  43. Language                                 : English
  44. Default                                  : Yes
  45. Forced                                   : No
复制代码

美国漫画史 Comic.Book.Confidential.1988.1080p.BluRay.x264-BiQ 6.55GB-2.png 美国漫画史 Comic.Book.Confidential.1988.1080p.BluRay.x264-BiQ 6.55GB-3.png 美国漫画史 Comic.Book.Confidential.1988.1080p.BluRay.x264-BiQ 6.55GB-4.png







回复

使用道具 举报

蓝光币
781
发表于 2020-5-2 00:18:23 | 显示全部楼层
楼主发贴辛苦了,谢谢楼主分享!我觉得蓝光电影网是注册对了!
回复 支持 反对

使用道具 举报

懒得打字嘛,点击右侧快捷回复 【右侧内容,后台自定义】
您需要登录后才可以回帖 登录 | 立即加入

本版积分规则

Archiver|小黑屋| 蓝光电影网 |网站地图

Copyright © 2021 Comsenz Inc. Powered by 蓝光电影网

蓝光电影网

本站内容由用户自主分享和转载自互联网,转载目的在于传递更多信息,并不代表本网赞同其观点和对其真实性负责。

如有侵权、违反国家法律政策行为,请联系我们,我们会第一时间及时清除和处理!

举报反馈邮箱:[email protected]

快速回复 返回顶部 返回列表