找回密码

蓝光电影网

查看: 237|回复: 2

[剧情] 置之死地 Cebeca.A.Premio.2009.1080p.BluRay.x264-RedBlade 7.94GB

[复制链接]
蓝光币
515
发表于 2020-4-30 10:55:54 | 显示全部楼层 |阅读模式
置之死地 Cebeca.A.Premio.2009.1080p.BluRay.x264-RedBlade 7.94GB-1.png

译  名 置之死地
片  名 Cabe?a a prêmio
年  代 2009
产  地 巴西
类  别 剧情
语  言 葡萄牙语
上映日期 2009-09-25(里约热内卢电影节) / 2010-08-20(巴西)
IMDb评分  5.7/10 from 120 users
IMDb链接  https://www.imdb.com/title/tt1650394
豆瓣评分 0/10 from 0 users
豆瓣链接 https://movie.douban.com/subject/5152342/
片  长 104分钟
导  演 马尔科·里卡 Marco Ricca
编  剧 Mar?al Aquino / 费利佩·布拉加 Felipe Braga / 马尔科·里卡 Marco Ricca
主  演 艾莉丝·布拉加 Alice Braga
       Ana Maria Braga
       Cássio Gabus Mendes
       丹尼尔·亨德尔 Daniel Hendler
       爱德华多·莫斯科维奇 Eduardo Moscovis
       Otávio Müller
       Fúlvio Stefanini


标  签 巴西 | 艾莉丝·布拉加 | 未下载

简  介  

  Miro (Fúlvio Stefanini) e Abílio (Otávio Muller) s?o irm?os e prósperos pecuaristas do centro-oeste brasileiro. Simultaneamente, controlam uma pequena rede de negócios ilícitos. Miro possui forte liga??o afetiva com sua família, em especial a esposa Jussara (Ana Braga) e a filha Elaine (Alice Braga). Abílio discorda do modo como o irm?o conduz seus negócios e acompanha, de longe, o envolvimento da sobrinha com o piloto Dênis (Daniel Hendler). A revela??o deste romance e as investidas de Abílio contra Dênis mudam completamente o panorama familiar.
  1. Video
  2. ID                                       : 1
  3. Format                                   : AVC
  4. Format/Info                              : Advanced Video Codec
  5. Format profile                           : [email protected]
  6. Format settings                          : CABAC / 4 Ref Frames
  7. Format settings, CABAC                   : Yes
  8. Format settings, Reference frames        : 4 frames
  9. Codec ID                                 : V_MPEG4/ISO/AVC
  10. Duration                                 : 1 h 45 min
  11. Bit rate                                 : 9 309 kb/s
  12. Width                                    : 1 920 pixels
  13. Height                                   : 1 080 pixels
  14. Display aspect ratio                     : 16:9
  15. Frame rate mode                          : Constant
  16. Frame rate                               : 23.976 (24000/1001/189150) FPS
  17. Color space                              : YUV
  18. Chroma subsampling                       : 4:2:0
  19. Bit depth                                : 8 bits
  20. Scan type                                : Progressive
  21. Bits/(Pixel*Frame)                       : 0.187
  22. Stream size                              : 6.67 GiB (84%)
  23. Writing library                          : x264 core 128 r2216 198a7ea
  24. Encoding settings                        : cabac=1 / ref=4 / deblock=1:0:0 / analyse=0x3:0x2 / me=umh / subme=7 / psy=1 / psy_rd=1.00:0.00 / mixed_ref=1 / me_range=16 / chroma_me=1 / trellis=1 / 8x8dct=1 / cqm=0 / deadzone=21,11 / fast_pskip=1 / chroma_qp_offset=-2 / threads=6 / lookahead_threads=1 / sliced_threads=0 / nr=0 / decimate=1 / interlaced=0 / bluray_compat=0 / constrained_intra=0 / bframes=3 / b_pyramid=2 / b_adapt=1 / b_bias=0 / direct=1 / weightb=0 / open_gop=0 / weightp=2 / keyint=240 / keyint_min=23 / scenecut=40 / intra_refresh=0 / rc=2pass / mbtree=0 / bitrate=9309 / ratetol=1.0 / qcomp=0.60 / qpmin=10 / qpmax=51 / qpstep=4 / cplxblur=20.0 / qblur=0.5 / ip_ratio=1.40 / pb_ratio=1.30 / aq=1:1.00
  25. Language                                 : English
  26. Default                                  : Yes
  27. Forced                                   : No

  28. Audio
  29. ID                                       : 2
  30. Format                                   : DTS
  31. Format/Info                              : Digital Theater Systems
  32. Codec ID                                 : A_DTS
  33. Duration                                 : 1 h 45 min
  34. Bit rate mode                            : Constant
  35. Bit rate                                 : 1 509 kb/s
  36. Channel(s)                               : 6 channels
  37. Channel layout                           : C L R Ls Rs LFE
  38. Sampling rate                            : 48.0 kHz
  39. Frame rate                               : 93.750 FPS (512 SPF)
  40. Bit depth                                : 24 bits
  41. Compression mode                         : Lossy
  42. Stream size                              : 1.11 GiB (14%)
  43. Language                                 : Portuguese
  44. Default                                  : Yes
  45. Forced                                   : No

  46. Text
  47. ID                                       : 3
  48. Format                                   : UTF-8
  49. Codec ID                                 : S_TEXT/UTF8
  50. Codec ID/Info                            : UTF-8 Plain Text
  51. Language                                 : English
  52. Default                                  : Yes
  53. Forced                                   : No
复制代码

置之死地 Cebeca.A.Premio.2009.1080p.BluRay.x264-RedBlade 7.94GB-2.png 置之死地 Cebeca.A.Premio.2009.1080p.BluRay.x264-RedBlade 7.94GB-3.png 置之死地 Cebeca.A.Premio.2009.1080p.BluRay.x264-RedBlade 7.94GB-4.png







回复

使用道具 举报

蓝光币
760
发表于 2020-4-30 15:17:02 | 显示全部楼层
楼主发贴辛苦了,谢谢楼主分享!我觉得蓝光电影网是注册对了!
回复 支持 反对

使用道具 举报

懒得打字嘛,点击右侧快捷回复 【右侧内容,后台自定义】
您需要登录后才可以回帖 登录 | 立即加入

本版积分规则

Archiver|小黑屋| 蓝光电影网 |网站地图

Copyright © 2021 Comsenz Inc. Powered by 蓝光电影网

蓝光电影网

本站内容由用户自主分享和转载自互联网,转载目的在于传递更多信息,并不代表本网赞同其观点和对其真实性负责。

如有侵权、违反国家法律政策行为,请联系我们,我们会第一时间及时清除和处理!

举报反馈邮箱:[email protected]

快速回复 返回顶部 返回列表