找回密码

蓝光电影网

查看: 200|回复: 2

[剧情] 布鲁克 Bruc.the.Manhunt.2010.SPANISH.ENSUBBED.1080p.BluRay.x264-RedBlade 6.56GB

[复制链接]
蓝光币
511
发表于 2020-4-30 10:57:55 | 显示全部楼层 |阅读模式
布鲁克 Bruc.the.Manhunt.2010.SPANISH.ENSUBBED.1080p.BluRay.x264-RedBlade 6.56GB-1.png

译  名 布鲁克
片  名 Bruc
年  代 2010
产  地 西班牙
类  别 剧情 / 战争
语  言 加泰罗尼亚语 / 西班牙语 / 法语
上映日期 2010-10-08
IMDb评分  5.6/10 from 679 users
IMDb链接  https://www.imdb.com/title/tt1444680
豆瓣评分 6.2/10 from 86 users
豆瓣链接 https://movie.douban.com/subject/3764949/
片  长 97分钟
导  演 Daniel Benmayor
编  剧 Patxi Amézcua / Jordi Gasull
主  演 Nicolas Giraud
       Astrid Berges-Frisbey
       Moussa Maaskri
       Justin Blanckaert


标  签 西班牙 | 历史 | 西班牙电影 | 战争 | 行动 | 2010s | 影院 | 剧情

简  介  

  西班牙,1808年。1808年6月6日拿破仑的军队面临了第一次败北,而且美满是一小我酿成的:一个年轻人操纵在蒙塞拉特山打鼓引发的持续反响引发了法国军队的发急。当拿破仑·波拿巴本人得知消息后,给皇家卫队轻骑队队长阿兰·马拉瓦尔一个使命:追捕蒙塞拉特山的义务人并割下他的头作为赏罚的标志。队长聚集了他最满足的手下,起头寻觅这个被称作布鲁克的年轻人。
  1. Video
  2. ID                                       : 1
  3. Format                                   : AVC
  4. Format/Info                              : Advanced Video Codec
  5. Format profile                           : [email protected]
  6. Format settings                          : CABAC / 5 Ref Frames
  7. Format settings, CABAC                   : Yes
  8. Format settings, Reference frames        : 5 frames
  9. Codec ID                                 : V_MPEG4/ISO/AVC
  10. Duration                                 : 1 h 29 min
  11. Bit rate                                 : 8 981 kb/s
  12. Width                                    : 1 920 pixels
  13. Height                                   : 800 pixels
  14. Display aspect ratio                     : 2.40:1
  15. Frame rate mode                          : Constant
  16. Frame rate                               : 24.000 FPS
  17. Color space                              : YUV
  18. Chroma subsampling                       : 4:2:0
  19. Bit depth                                : 8 bits
  20. Scan type                                : Progressive
  21. Bits/(Pixel*Frame)                       : 0.244
  22. Stream size                              : 5.48 GiB (84%)
  23. Writing library                          : x264 core 122 r2184 5c85e0a
  24. Encoding settings                        : cabac=1 / ref=5 / deblock=1:0:0 / analyse=0x3:0x2 / me=umh / subme=7 / psy=1 / psy_rd=1.00:0.00 / mixed_ref=1 / me_range=16 / chroma_me=1 / trellis=1 / 8x8dct=1 / cqm=0 / deadzone=21,11 / fast_pskip=1 / chroma_qp_offset=-2 / threads=6 / sliced_threads=0 / nr=0 / decimate=1 / interlaced=0 / bluray_compat=0 / constrained_intra=0 / bframes=3 / b_pyramid=2 / b_adapt=1 / b_bias=0 / direct=1 / weightb=0 / open_gop=0 / weightp=2 / keyint=240 / keyint_min=24 / scenecut=40 / intra_refresh=0 / rc=2pass / mbtree=0 / bitrate=8981 / ratetol=1.0 / qcomp=0.60 / qpmin=10 / qpmax=51 / qpstep=4 / cplxblur=20.0 / qblur=0.5 / ip_ratio=1.40 / pb_ratio=1.30 / aq=1:1.00
  25. Language                                 : English
  26. Default                                  : Yes
  27. Forced                                   : No

  28. Audio
  29. ID                                       : 2
  30. Format                                   : DTS
  31. Format/Info                              : Digital Theater Systems
  32. Codec ID                                 : A_DTS
  33. Duration                                 : 1 h 29 min
  34. Bit rate mode                            : Constant
  35. Bit rate                                 : 1 509 kb/s
  36. Channel(s)                               : 6 channels
  37. Channel layout                           : C L R Ls Rs LFE
  38. Sampling rate                            : 48.0 kHz
  39. Frame rate                               : 93.750 FPS (512 SPF)
  40. Bit depth                                : 24 bits
  41. Compression mode                         : Lossy
  42. Stream size                              : 966 MiB (14%)
  43. Language                                 : Spanish
  44. Default                                  : Yes
  45. Forced                                   : No
复制代码

布鲁克 Bruc.the.Manhunt.2010.SPANISH.ENSUBBED.1080p.BluRay.x264-RedBlade 6.56GB-2.png 布鲁克 Bruc.the.Manhunt.2010.SPANISH.ENSUBBED.1080p.BluRay.x264-RedBlade 6.56GB-3.png 布鲁克 Bruc.the.Manhunt.2010.SPANISH.ENSUBBED.1080p.BluRay.x264-RedBlade 6.56GB-4.png







回复

使用道具 举报

蓝光币
377
发表于 2020-4-30 13:31:13 | 显示全部楼层

这个帖子不回对不起自己!我想我是一天也不能离开蓝光电影网
回复 支持 反对

使用道具 举报

懒得打字嘛,点击右侧快捷回复 【右侧内容,后台自定义】
您需要登录后才可以回帖 登录 | 立即加入

本版积分规则

Archiver|小黑屋| 蓝光电影网 |网站地图

Copyright © 2021 Comsenz Inc. Powered by 蓝光电影网

蓝光电影网

本站内容由用户自主分享和转载自互联网,转载目的在于传递更多信息,并不代表本网赞同其观点和对其真实性负责。

如有侵权、违反国家法律政策行为,请联系我们,我们会第一时间及时清除和处理!

举报反馈邮箱:[email protected]

快速回复 返回顶部 返回列表