找回密码

蓝光电影网

查看: 284|回复: 2

[剧情] 呼吸 Breathing.2011.GERMAN.ENSUBBED.1080p.BluRay.x264-SONiDO 6.55GB

[复制链接]
蓝光币
511
发表于 2020-4-30 10:58:49 | 显示全部楼层 |阅读模式
呼吸 Breathing.2011.GERMAN.ENSUBBED.1080p.BluRay.x264-SONiDO 6.55GB-1.png

译  名 呼吸 / Breathing / 停尸间的深呼吸(港) / 深深深呼吸(台) / 运尸人的深呼吸
片  名 Atmen
年  代 2011
产  地 奥天时
类  别 剧情
语  言 英语 / 德语
上映日期 2011-09-30(奥天时)
IMDb评分  7.0/10 from 2682 users
IMDb链接  https://www.imdb.com/title/tt1680679
豆瓣评分 7.4/10 from 1507 users
豆瓣链接 https://movie.douban.com/subject/6123847/
片  长 94分钟
导  演 卡尔·马克维斯 Karl Markovics
编  剧 卡尔·马克维斯 Karl Markovics
主  演 Thomas Schubert
       Karin Lischka
       Georg Friedrich
       Gerhard Liebmann
       Stefan Matousch
       Luna Mijovic
       Georg Veitl
       Klaus Rott


标  签 奥天时 | 长大 | 剧情 | 青春 | 奥天时电影 | 2011 | 欧洲电影 | 电影

简  介  

  十九岁男孩在少年观护所中服满泰半刑期,为了赢得假释出狱的机遇,他必须证实自己可以重返社会,却在求职进程中处处碰鼻,终极竟挑中了最不成思议的行业──投身丧葬业输送尸身。日复一日往返于命案现场、停尸间、墓园与观护所之间,身处在最接近灭亡的鸿沟,整天面临着冰冷的尸首、亲眼看尽亲族百态,他也被迫回头去重视昔日所犯下的罪愆。

获奖情况  

  第64届戛纳电影节(2011)
  导演双周单元奖 欧洲电影奖 卡尔·马克维斯

  第24届欧洲电影奖(2011)
  年度发现奖(提名) 卡尔·马克维斯
  1. Video
  2. ID                                       : 1
  3. Format                                   : AVC
  4. Format/Info                              : Advanced Video Codec
  5. Format profile                           : [email protected]
  6. Format settings                          : CABAC / 5 Ref Frames
  7. Format settings, CABAC                   : Yes
  8. Format settings, Reference frames        : 5 frames
  9. Codec ID                                 : V_MPEG4/ISO/AVC
  10. Duration                                 : 1 h 30 min
  11. Bit rate                                 : 8 904 kb/s
  12. Width                                    : 1 920 pixels
  13. Height                                   : 816 pixels
  14. Display aspect ratio                     : 2.35:1
  15. Frame rate mode                          : Constant
  16. Frame rate                               : 25.000 FPS
  17. Color space                              : YUV
  18. Chroma subsampling                       : 4:2:0
  19. Bit depth                                : 8 bits
  20. Scan type                                : Progressive
  21. Bits/(Pixel*Frame)                       : 0.227
  22. Stream size                              : 5.47 GiB (84%)
  23. Writing library                          : x264 core 125 r2208 d9d2288
  24. Encoding settings                        : cabac=1 / ref=5 / deblock=1:0:0 / analyse=0x3:0x133 / me=umh / subme=7 / psy=1 / psy_rd=1.00:0.00 / mixed_ref=1 / me_range=16 / chroma_me=1 / trellis=1 / 8x8dct=1 / cqm=0 / deadzone=21,11 / fast_pskip=0 / chroma_qp_offset=-2 / threads=12 / lookahead_threads=2 / sliced_threads=0 / nr=0 / decimate=1 / interlaced=0 / bluray_compat=0 / constrained_intra=0 / bframes=3 / b_pyramid=2 / b_adapt=2 / b_bias=0 / direct=3 / weightb=1 / open_gop=0 / weightp=2 / keyint=250 / keyint_min=25 / scenecut=40 / intra_refresh=0 / rc_lookahead=50 / rc=2pass / mbtree=1 / bitrate=8904 / ratetol=1.0 / qcomp=0.60 / qpmin=0 / qpmax=69 / qpstep=4 / cplxblur=20.0 / qblur=0.5 / ip_ratio=1.40 / aq=1:1.00
  25. Language                                 : English
  26. Default                                  : Yes
  27. Forced                                   : No

  28. Audio
  29. ID                                       : 2
  30. Format                                   : DTS
  31. Format/Info                              : Digital Theater Systems
  32. Codec ID                                 : A_DTS
  33. Duration                                 : 1 h 30 min
  34. Bit rate mode                            : Constant
  35. Bit rate                                 : 1 509 kb/s
  36. Channel(s)                               : 6 channels
  37. Channel layout                           : C L R Ls Rs LFE
  38. Sampling rate                            : 48.0 kHz
  39. Frame rate                               : 93.750 FPS (512 SPF)
  40. Bit depth                                : 24 bits
  41. Compression mode                         : Lossy
  42. Stream size                              : 972 MiB (14%)
  43. Language                                 : German
  44. Default                                  : Yes
  45. Forced                                   : No
复制代码

呼吸 Breathing.2011.GERMAN.ENSUBBED.1080p.BluRay.x264-SONiDO 6.55GB-2.png 呼吸 Breathing.2011.GERMAN.ENSUBBED.1080p.BluRay.x264-SONiDO 6.55GB-3.png 呼吸 Breathing.2011.GERMAN.ENSUBBED.1080p.BluRay.x264-SONiDO 6.55GB-4.png







回复

使用道具 举报

蓝光币
70
发表于 2020-5-9 23:13:04 | 显示全部楼层

感谢楼主的无私分享!要想蓝光电影网好 就靠你我他
回复 支持 反对

使用道具 举报

懒得打字嘛,点击右侧快捷回复 【右侧内容,后台自定义】
您需要登录后才可以回帖 登录 | 立即加入

本版积分规则

Archiver|小黑屋| 蓝光电影网 |网站地图

Copyright © 2021 Comsenz Inc. Powered by 蓝光电影网

蓝光电影网

本站内容由用户自主分享和转载自互联网,转载目的在于传递更多信息,并不代表本网赞同其观点和对其真实性负责。

如有侵权、违反国家法律政策行为,请联系我们,我们会第一时间及时清除和处理!

举报反馈邮箱:[email protected]

快速回复 返回顶部 返回列表