找回密码

蓝光电影网

查看: 622|回复: 1

[剧情] 不良教育 Bad.Education.2004.1080p.BluRay.x264-PHOBOS 7.65GB

[复制链接]
蓝光币
515
发表于 2020-4-30 11:00:40 | 显示全部楼层 |阅读模式
不良教育 Bad.Education.2004.1080p.BluRay.x264-PHOBOS 7.65GB-1.png

译  名 不良教育 / Bad Education / 圣·教·欲(港) / 坏教欲(台) / 扑灭性教育
片  名 La mala educación
年  代 2004
产  地 西班牙
类  别 剧情 / 悬疑 / 惊悚 / 同性 / 犯罪
语  言 西班牙语 / 拉丁语
上映日期 2004-09-16
IMDb评分  7.4/10 from 53755 users
IMDb链接  https://www.imdb.com/title/tt0275491
豆瓣评分 8.3/10 from 31295 users
豆瓣链接 https://movie.douban.com/subject/1291878/
片  长 106 分钟
导  演 佩德罗·阿莫多瓦 Pedro Almodóvar
编  剧 佩德罗·阿莫多瓦 Pedro Almodóvar
主  演 盖尔·加西亚·贝纳尔 Gael García Bernal
       费莱·马丁内斯 Fele Martínez
       丹尼尔·希梅内斯·卡乔 Daniel Giménez Cacho
       路易斯·奥马 Lluís Homar
       Francisco Maestre
       弗郎西斯科·博伊拉 Francisco Boira
       胡安·费尔南德斯 Juan Fernández
       纳乔·佩雷斯 Nacho Pérez
       哈维尔·卡马拉 Javier Cámara
       阿尔维托·费雷罗 Alberto Ferreiro
       佩特拉·马丁内斯 Petra Martínez
       Roberto Hoyas
       阿古斯丁·阿莫多瓦 Agustín Almodóvar
       佩德罗·阿莫多瓦 Pedro Almodóvar
       波尔·莫南 Pol Monen
       萨拉·蒙铁儿 Sara Montiel
       蕾欧诺·瓦特林 Leonor Watling
       何塞·马利亚·亚兹皮克 José María Yazpik


标  签 西班牙 | 阿莫多瓦 | 同道 | 西班牙电影 | 同性 | PedroAlmodóvar | 阿尔莫多瓦 | 同性恋

简  介  

  恩里克(费雷?马丁内兹 饰)和伊格莱西奥(弗朗西斯科?拜奥拉 饰)是教会黉舍的同学,更是一对同性情人。黉舍的莫雷神父以留下恩里克为诱饵占有了伊格莱西奥,但终极恩里克还是分开了教会黉舍。这对同性情人也就劳燕分飞。
  成年后的恩里克已是一位大有前途的导演。一天,伊格莱西奥带着剧本找到了恩里克,希望自己能出演男配角。剧本描写的就是他们的长大履历加上设想的成年履历,恩里克对剧本非常感爱好,但却分歧意由伊格莱西奥出演。
  当恩里克来到伊格莱西奥的故乡时,奥秘一幕幕揭开……

获奖情况  

  第58届英国电影学院奖(2005)
  电影奖 最好非英语片(提名) 阿古斯丁·阿莫多瓦 / 佩德罗·阿莫多瓦
  1. Video
  2. ID                                       : 1
  3. Format                                   : AVC
  4. Format/Info                              : Advanced Video Codec
  5. Format profile                           : [email protected]
  6. Format settings                          : CABAC / 5 Ref Frames
  7. Format settings, CABAC                   : Yes
  8. Format settings, Reference frames        : 5 frames
  9. Codec ID                                 : V_MPEG4/ISO/AVC
  10. Duration                                 : 1 h 45 min
  11. Bit rate                                 : 9 769 kb/s
  12. Width                                    : 1 920 pixels
  13. Height                                   : 824 pixels
  14. Display aspect ratio                     : 2.35:1
  15. Frame rate mode                          : Constant
  16. Frame rate                               : 24.000 FPS
  17. Color space                              : YUV
  18. Chroma subsampling                       : 4:2:0
  19. Bit depth                                : 8 bits
  20. Scan type                                : Progressive
  21. Bits/(Pixel*Frame)                       : 0.257
  22. Stream size                              : 7.18 GiB (94%)
  23. Writing library                          : x264 core 132 r2309 3b1f1f7
  24. Encoding settings                        : cabac=1 / ref=5 / deblock=1:0:0 / analyse=0x3:0x133 / me=umh / subme=10 / psy=1 / psy_rd=1.00:0.00 / mixed_ref=1 / me_range=24 / chroma_me=1 / trellis=2 / 8x8dct=1 / cqm=0 / deadzone=21,11 / fast_pskip=1 / chroma_qp_offset=-2 / threads=12 / lookahead_threads=2 / sliced_threads=0 / nr=0 / decimate=1 / interlaced=0 / bluray_compat=0 / constrained_intra=0 / bframes=8 / b_pyramid=2 / b_adapt=2 / b_bias=0 / direct=3 / weightb=1 / open_gop=0 / weightp=2 / keyint=250 / keyint_min=24 / scenecut=40 / intra_refresh=0 / rc_lookahead=60 / rc=2pass / mbtree=1 / bitrate=9769 / ratetol=1.0 / qcomp=0.60 / qpmin=0 / qpmax=69 / qpstep=4 / cplxblur=20.0 / qblur=0.5 / ip_ratio=1.40 / aq=1:1.00
  25. Default                                  : Yes
  26. Forced                                   : No

  27. Audio
  28. ID                                       : 2
  29. Format                                   : AC-3
  30. Format/Info                              : Audio Coding 3
  31. Commercial name                          : Dolby Digital
  32. Codec ID                                 : A_AC3
  33. Duration                                 : 1 h 45 min
  34. Bit rate mode                            : Constant
  35. Bit rate                                 : 640 kb/s
  36. Channel(s)                               : 6 channels
  37. Channel layout                           : L R C LFE Ls Rs
  38. Sampling rate                            : 48.0 kHz
  39. Frame rate                               : 31.250 FPS (1536 SPF)
  40. Bit depth                                : 16 bits
  41. Compression mode                         : Lossy
  42. Stream size                              : 482 MiB (6%)
  43. Language                                 : Spanish
  44. Service kind                             : Complete Main
  45. Default                                  : Yes
  46. Forced                                   : No

  47. Text #1
  48. ID                                       : 3
  49. Format                                   : UTF-8
  50. Codec ID                                 : S_TEXT/UTF8
  51. Codec ID/Info                            : UTF-8 Plain Text
  52. Duration                                 : 1 h 44 min
  53. Bit rate                                 : 47 b/s
  54. Count of elements                        : 1265
  55. Stream size                              : 36.0 KiB (0%)
  56. Title                                    : English
  57. Language                                 : English
  58. Default                                  : Yes
  59. Forced                                   : No

  60. Text #2
  61. ID                                       : 4
  62. Format                                   : UTF-8
  63. Codec ID                                 : S_TEXT/UTF8
  64. Codec ID/Info                            : UTF-8 Plain Text
  65. Duration                                 : 1 h 37 min
  66. Bit rate                                 : 57 b/s
  67. Count of elements                        : 1433
  68. Stream size                              : 41.0 KiB (0%)
  69. Title                                    : Spanish SDH
  70. Language                                 : Spanish
  71. Default                                  : No
  72. Forced                                   : No

  73. Menu
  74. 00:00:00.000                             : en:00:00:00.000
  75. 00:11:06.766                             : en:00:11:06.766
  76. 00:23:49.391                             : en:00:23:49.391
  77. 00:38:06.100                             : en:00:38:6.100
  78. 00:50:23.183                             : en:00:50:23.183
  79. 01:03:10.433                             : en:01:03:10.433
  80. 01:15:13.600                             : en:01:15:13.600
  81. 01:31:53.850                             : en:01:31:53.850
复制代码

不良教育 Bad.Education.2004.1080p.BluRay.x264-PHOBOS 7.65GB-2.png 不良教育 Bad.Education.2004.1080p.BluRay.x264-PHOBOS 7.65GB-3.png 不良教育 Bad.Education.2004.1080p.BluRay.x264-PHOBOS 7.65GB-4.png







回复

使用道具 举报

蓝光币
1506
发表于 2020-4-30 18:05:16 | 显示全部楼层
楼主发贴辛苦了,谢谢楼主分享!我觉得蓝光电影网是注册对了!
回复 支持 反对

使用道具 举报

懒得打字嘛,点击右侧快捷回复 【右侧内容,后台自定义】
您需要登录后才可以回帖 登录 | 立即加入

本版积分规则

Archiver|小黑屋| 蓝光电影网 |网站地图

Copyright © 2021 Comsenz Inc. Powered by 蓝光电影网

蓝光电影网

本站内容由用户自主分享和转载自互联网,转载目的在于传递更多信息,并不代表本网赞同其观点和对其真实性负责。

如有侵权、违反国家法律政策行为,请联系我们,我们会第一时间及时清除和处理!

举报反馈邮箱:[email protected]

快速回复 返回顶部 返回列表