找回密码

蓝光电影网

查看: 544|回复: 4

[10bit.SDR] 阿基拉 Akira.1988.JAPANESE.2160p.JPN.BluRay.x265.10bit.SDR.TrueHD.5.1-SWTYBLZ 28.31GB

[复制链接]
蓝光币
515
发表于 2020-4-30 11:09:37 | 显示全部楼层 |阅读模式
阿基拉 Akira.1988.JAPANESE.2160p.JPN.BluRay.x265.10bit.SDR.TrueHD.5.1-SWTYBLZ 28.31GB-1.png

译  名 阿基拉 / アキラ / 亚基拉 / 亚辉罗 / 光亮战士阿基拉
片  名 Akira
年  代 1988
产  地 日本
类  别 行动 / 科幻 / 动画
语  言 日语
上映日期 1988-07-16(日本)
IMDb评分  8.0/10 from 154755 users
IMDb链接  https://www.imdb.com/title/tt0094625
豆瓣评分 8.5/10 from 45273 users
豆瓣链接 https://movie.douban.com/subject/1302770/
片  长 124分钟
导  演 大友克洋 Katsuhiro ?tomo
编  剧 大友克洋 Katsuhiro ?tomo / 桥本以葬 Iz? Hashimoto
主  演 岩田光央 Mitsuo Iwata
       佐佐木望 Nozomu Sasaki
       小山茉美 Mami Koyama
       玄田哲章 Tessh? Genda
       大竹宏 Hiroshi ?take
       北村弘一 K?ichi Kitamura
       池水通洋 Michihiro Ikemizu
       渊崎由里子 Yuriko Fuchizaki
       大仓正章 Ookura Masaaki
       荒川太郎 Arakawa Tarou
       草尾毅 Takeshi Kusao
       田中和实 Kazumi Tanaka
       加藤将之 Masayuki Kat?
       秋元羊介 Y?suke Akimoto
       平野君子 Hirano Masato
       岸野幸正 Kishino Yukimasa
       中村龙彦
       神藤一弘
       伊藤福惠
       二又一成 Issei Futamata
       盐屋浩三 K?z? Shioya
       小林通孝 Kobayashi Michitaka
       梅津秀行 Hideyuki Umezu
       稻垣悟 Inagaki Satoru
       藤井佳代子 Fujii Kayoko
       丰岛雅美 Masami Toyoshima
       大野由佳
       铃木瑞穗 Mizuho Suzuki
       石田太郎 Tar? Ishida


标  签 大友克洋 | 动画 | 科幻 | 日本 | 日本动画 | Akira | 1988 | 日本电影

简  介  

  1988年7月,关东地域利用新型炸弹停止爆破,第三次天下大战马上爆发。31年后,人类从一片废墟中重建都会,东京湾上建立了庞大城市——新东京。天下恍如要规复到之前的繁华。
  2019年的一个夜晚,新东京郊外的封锁高速公路上,暴走族团体正在公路上飙车。带头的少年,是一位叫做金田的职业高中门生。
  忽然,街上出现了一位希奇的矮个子男人,暴走族少年铁雄为躲避车祸连人带车飞出公路。正当金田要拿那位男人问罪之时,军队驾驶直升飞机感应。将那位矮个男人与铁雄一路收押。
  铁雄进入了一个陌生的地方,这里似乎在处置超才能的研讨。而金田则在盘算若何救援铁雄。二人都不晓得,他们的未来,由于奥秘气力——阿基拉而已经起头了庞大的变化。
  1. Video
  2. ID                                       : 1
  3. Format                                   : HEVC
  4. Format/Info                              : High Efficiency Video Coding
  5. Format profile                           : Main [email protected]@High
  6. Codec ID                                 : V_MPEGH/ISO/HEVC
  7. Duration                                 : 2 h 4 min
  8. Bit rate                                 : 19.7 Mb/s
  9. Width                                    : 3 840 pixels
  10. Height                                   : 2 074 pixels
  11. Display aspect ratio                     : 1.85:1
  12. Frame rate mode                          : Constant
  13. Frame rate                               : 23.976 (24000/1001/189150) FPS
  14. Color space                              : YUV
  15. Chroma subsampling                       : 4:2:0
  16. Bit depth                                : 10 bits
  17. Bits/(Pixel*Frame)                       : 0.103
  18. Stream size                              : 17.2 GiB (61%)
  19. Title                                    : Akira.1988.JAPANESE.2160p.JPN.BluRay.x265.10bit.SDR.TrueHD.5.1-SWTYBLZ
  20. Writing library                          : x265 3.0ed72af837053:[Windows][GCC 8.2.0][64 bit] 10bit
  21. Encoding settings                        : cpuid=1111039 / frame-threads=6 / numa-pools=40 / wpp / no-pmode / no-pme / no-psnr / no-ssim / log-level=2 / input-csp=1 / input-res=3840x2074 / interlace=0 / total-frames=179496 / level-idc=51 / high-tier=1 / uhd-bd=0 / ref=3 / no-allow-non-conformance / repeat-headers / annexb / aud / hrd / info / hash=0 / no-temporal-layers / no-open-gop / min-keyint=1 / keyint=24 / gop-lookahead=0 / bframes=6 / b-adapt=2 / b-pyramid / bframe-bias=0 / rc-lookahead=25 / lookahead-slices=4 / scenecut=40 / radl=0 / no-splice / no-intra-refresh / ctu=64 / min-cu-size=8 / no-rect / no-amp / max-tu-size=32 / tu-inter-depth=1 / tu-intra-depth=1 / limit-tu=0 / rdoq-level=0 / dynamic-rd=0.00 / no-ssim-rd / signhide / no-tskip / nr-intra=0 / nr-inter=0 / no-constrained-intra / strong-intra-smoothing / max-merge=2 / limit-refs=3 / no-limit-modes / me=1 / subme=2 / merange=57 / temporal-mvp / weightp / no-weightb / no-analyze-src-pics / deblock=1:1 / no-sao / no-sao-non-deblock / rd=3 / no-early-skip / rskip / no-fast-intra / no-tskip-fast / no-cu-lossless / no-b-intra / no-splitrd-skip / rdpenalty=0 / psy-rd=0.40 / psy-rdoq=0.00 / no-rd-refine / no-lossless / cbqpoffs=0 / crqpoffs=0 / rc=crf / crf=14.0 / qcomp=0.60 / qpstep=4 / stats-write=0 / stats-read=0 / vbv-maxrate=160000 / vbv-bufsize=160000 / vbv-init=0.9 / crf-max=0.0 / crf-min=0.0 / ipratio=1.40 / pbratio=1.30 / aq-mode=1 / aq-strength=0.40 / cutree / zone-count=0 / no-strict-cbr / qg-size=32 / no-rc-grain / qpmax=69 / qpmin=0 / no-const-vbv / sar=1 / overscan=0 / videoformat=5 / range=0 / colorprim=2 / transfer=2 / colormatrix=2 / chromaloc=0 / display-window=0 / max-cll=0,0 / min-luma=0 / max-luma=1023 / log2-max-poc-lsb=8 / vui-timing-info / vui-hrd-info / slices=1 / opt-qp-pps / opt-ref-list-length-pps / no-multi-pass-opt-rps / scenecut-bias=0.05 / no-opt-cu-delta-qp / no-aq-motion / no-hdr / no-hdr-opt / no-dhdr10-opt / no-idr-recovery-sei / analysis-reuse-level=5 / scale-factor=0 / refine-intra=0 / refine-inter=0 / refine-mv=0 / refine-ctu-distortion=0 / no-limit-sao / ctu-info=0 / no-lowpass-dct / refine-analysis-type=0 / copy-pic=1 / max-ausize-factor=1.0 / no-dynamic-refine / no-single-sei / no-hevc-aq / qp-adaptation-range=1.00
  22. Default                                  : Yes
  23. Forced                                   : No

  24. Audio #1
  25. ID                                       : 2
  26. Format                                   : MLP FBA
  27. Format/Info                              : Meridian Lossless Packing FBA
  28. Commercial name                          : Dolby TrueHD
  29. Codec ID                                 : A_TRUEHD
  30. Duration                                 : 2 h 4 min
  31. Bit rate mode                            : Variable
  32. Bit rate                                 : 9 517 kb/s
  33. Maximum bit rate                         : 13.9 Mb/s
  34. Channel(s)                               : 6 channels
  35. Channel layout                           : L R C LFE Ls Rs
  36. Sampling rate                            : 192 kHz
  37. Frame rate                               : 1 200.000 FPS (160 SPF)
  38. Compression mode                         : Lossless
  39. Stream size                              : 8.29 GiB (29%)
  40. Title                                    : Akira.1988.JAPANESE.2160p.JPN.BluRay.x265.10bit.SDR.TrueHD.5.1-SWTYBLZ
  41. Language                                 : Japanese
  42. Default                                  : Yes
  43. Forced                                   : No

  44. Audio #2
  45. ID                                       : 3
  46. Format                                   : AC-3
  47. Format/Info                              : Audio Coding 3
  48. Commercial name                          : Dolby Digital
  49. Codec ID                                 : A_AC3
  50. Duration                                 : 2 h 4 min
  51. Bit rate mode                            : Constant
  52. Bit rate                                 : 640 kb/s
  53. Channel(s)                               : 6 channels
  54. Channel layout                           : L R C LFE Ls Rs
  55. Sampling rate                            : 48.0 kHz
  56. Frame rate                               : 31.250 FPS (1536 SPF)
  57. Bit depth                                : 16 bits
  58. Compression mode                         : Lossy
  59. Stream size                              : 571 MiB (2%)
  60. Title                                    : Akira.1988.JAPANESE.2160p.JPN.BluRay.x265.10bit.SDR.TrueHD.5.1-SWTYBLZ
  61. Language                                 : Japanese
  62. Service kind                             : Complete Main
  63. Default                                  : No
  64. Forced                                   : No

  65. Audio #3
  66. ID                                       : 4
  67. Format                                   : MLP FBA
  68. Format/Info                              : Meridian Lossless Packing FBA
  69. Commercial name                          : Dolby TrueHD
  70. Codec ID                                 : A_TRUEHD
  71. Duration                                 : 2 h 4 min
  72. Bit rate mode                            : Variable
  73. Bit rate                                 : 1 669 kb/s
  74. Maximum bit rate                         : 2 835 kb/s
  75. Channel(s)                               : 6 channels
  76. Channel layout                           : L R C LFE Ls Rs
  77. Sampling rate                            : 48.0 kHz
  78. Frame rate                               : 1 200.000 FPS (40 SPF)
  79. Compression mode                         : Lossless
  80. Stream size                              : 1.45 GiB (5%)
  81. Title                                    : Akira.1988.JAPANESE.2160p.JPN.BluRay.x265.10bit.SDR.TrueHD.5.1-SWTYBLZ
  82. Language                                 : English
  83. Default                                  : No
  84. Forced                                   : No

  85. Audio #4
  86. ID                                       : 5
  87. Format                                   : AC-3
  88. Format/Info                              : Audio Coding 3
  89. Commercial name                          : Dolby Digital
  90. Codec ID                                 : A_AC3
  91. Duration                                 : 2 h 4 min
  92. Bit rate mode                            : Constant
  93. Bit rate                                 : 640 kb/s
  94. Channel(s)                               : 6 channels
  95. Channel layout                           : L R C LFE Ls Rs
  96. Sampling rate                            : 48.0 kHz
  97. Frame rate                               : 31.250 FPS (1536 SPF)
  98. Bit depth                                : 16 bits
  99. Compression mode                         : Lossy
  100. Stream size                              : 571 MiB (2%)
  101. Title                                    : Akira.1988.JAPANESE.2160p.JPN.BluRay.x265.10bit.SDR.TrueHD.5.1-SWTYBLZ
  102. Language                                 : English
  103. Service kind                             : Complete Main
  104. Default                                  : No
  105. Forced                                   : No

  106. Text #1
  107. ID                                       : 6
  108. Format                                   : UTF-8
  109. Codec ID                                 : S_TEXT/UTF8
  110. Codec ID/Info                            : UTF-8 Plain Text
  111. Duration                                 : 1 h 59 min
  112. Bit rate                                 : 46 b/s
  113. Count of elements                        : 1277
  114. Stream size                              : 40.7 KiB (0%)
  115. Title                                    : English-SRT
  116. Language                                 : English
  117. Default                                  : Yes
  118. Forced                                   : No

  119. Text #2
  120. ID                                       : 7
  121. Format                                   : PGS
  122. Muxing mode                              : zlib
  123. Codec ID                                 : S_HDMV/PGS
  124. Codec ID/Info                            : Picture based subtitle format used on BDs/HD-DVDs
  125. Duration                                 : 1 h 59 min
  126. Bit rate                                 : 29.0 kb/s
  127. Count of elements                        : 2521
  128. Stream size                              : 24.7 MiB (0%)
  129. Title                                    : English-PGS
  130. Language                                 : English
  131. Default                                  : No
  132. Forced                                   : No

  133. Text #3
  134. ID                                       : 8
  135. Format                                   : PGS
  136. Muxing mode                              : zlib
  137. Codec ID                                 : S_HDMV/PGS
  138. Codec ID/Info                            : Picture based subtitle format used on BDs/HD-DVDs
  139. Duration                                 : 1 h 58 min
  140. Bit rate                                 : 25.7 kb/s
  141. Count of elements                        : 2788
  142. Stream size                              : 21.9 MiB (0%)
  143. Title                                    : Japanese-PGS
  144. Language                                 : Japanese
  145. Default                                  : No
  146. Forced                                   : No

  147. Menu
  148. 00:00:00.000                             : en:Chapter 01
  149. 00:03:04.309                             : en:Chapter 02
  150. 00:05:25.283                             : en:Chapter 03
  151. 00:06:58.668                             : en:Chapter 04
  152. 00:10:33.507                             : en:Chapter 05
  153. 00:12:11.731                             : en:Chapter 06
  154. 00:16:53.887                             : en:Chapter 07
  155. 00:20:37.444                             : en:Chapter 08
  156. 00:23:45.340                             : en:Chapter 09
  157. 00:26:44.686                             : en:Chapter 10
  158. 00:29:10.081                             : en:Chapter 11
  159. 00:32:10.511                             : en:Chapter 12
  160. 00:35:21.577                             : en:Chapter 13
  161. 00:38:14.250                             : en:Chapter 14
  162. 00:41:23.147                             : en:Chapter 15
  163. 00:45:05.703                             : en:Chapter 16
  164. 00:47:40.107                             : en:Chapter 17
  165. 00:53:16.484                             : en:Chapter 18
  166. 00:57:16.850                             : en:Chapter 19
  167. 01:02:32.206                             : en:Chapter 20
  168. 01:05:30.176                             : en:Chapter 21
  169. 01:08:36.403                             : en:Chapter 22
  170. 01:11:11.058                             : en:Chapter 23
  171. 01:14:30.466                             : en:Chapter 24
  172. 01:18:12.270                             : en:Chapter 25
  173. 01:21:31.428                             : en:Chapter 26
  174. 01:25:57.485                             : en:Chapter 27
  175. 01:30:47.358                             : en:Chapter 28
  176. 01:36:05.509                             : en:Chapter 29
  177. 01:39:38.764                             : en:Chapter 30
  178. 01:41:54.900                             : en:Chapter 31
  179. 01:45:42.336                             : en:Chapter 32
  180. 01:49:21.680                             : en:Chapter 33
  181. 01:52:23.695                             : en:Chapter 34
  182. 01:56:06.960                             : en:Chapter 35
  183. 01:58:24.972                             : en:Chapter 36
  184. 02:00:21.297                             : en:Chapter 37
  185. 02:04:33.466                             : en:Chapter 38
复制代码

阿基拉 Akira.1988.JAPANESE.2160p.JPN.BluRay.x265.10bit.SDR.TrueHD.5.1-SWTYBLZ 28.31GB-2.png 阿基拉 Akira.1988.JAPANESE.2160p.JPN.BluRay.x265.10bit.SDR.TrueHD.5.1-SWTYBLZ 28.31GB-3.png 阿基拉 Akira.1988.JAPANESE.2160p.JPN.BluRay.x265.10bit.SDR.TrueHD.5.1-SWTYBLZ 28.31GB-4.png 阿基拉 Akira.1988.JAPANESE.2160p.JPN.BluRay.x265.10bit.SDR.TrueHD.5.1-SWTYBLZ 28.31GB-5.png 阿基拉 Akira.1988.JAPANESE.2160p.JPN.BluRay.x265.10bit.SDR.TrueHD.5.1-SWTYBLZ 28.31GB-6.png 阿基拉 Akira.1988.JAPANESE.2160p.JPN.BluRay.x265.10bit.SDR.TrueHD.5.1-SWTYBLZ 28.31GB-7.png 阿基拉 Akira.1988.JAPANESE.2160p.JPN.BluRay.x265.10bit.SDR.TrueHD.5.1-SWTYBLZ 28.31GB-8.png







回复

使用道具 举报

懒得打字嘛,点击右侧快捷回复 【右侧内容,后台自定义】
您需要登录后才可以回帖 登录 | 立即加入

本版积分规则

Archiver|小黑屋| 蓝光电影网 |网站地图

Copyright © 2021 Comsenz Inc. Powered by 蓝光电影网

蓝光电影网

本站内容由用户自主分享和转载自互联网,转载目的在于传递更多信息,并不代表本网赞同其观点和对其真实性负责。

如有侵权、违反国家法律政策行为,请联系我们,我们会第一时间及时清除和处理!

举报反馈邮箱:[email protected]

快速回复 返回顶部 返回列表