找回密码

蓝光电影网

查看: 299|回复: 1

[惊悚] 危险的谎言/危险谎言 Dangerous.Lies.2020.1080p.WEBRip.x264-RARBG 1.85GB

[复制链接]
蓝光币
515
发表于 2020-4-30 18:34:09 | 显示全部楼层 |阅读模式
危险的假话/危险假话 Dangerous.Lies.2020.1080p.WEBRip.x264-RARBG 1.85GB-1.png

译  名 危险的假话 / 危险假话
片  名 Dangerous Lies
年  代 2020
产  地 美国
类  别 惊悚
语  言 英语
上映日期 2020-04-30(美国)
IMDb链接  https://www.imdb.com/title/tt10183816
豆瓣评分 0/10 from 0 users
豆瓣链接 https://movie.douban.com/subject/33404483/
片  长 96分钟
导  演 迈克尔·斯科特 Michael Scott
编  剧 大卫·戈尔登 David Golden
主  演 杰米·钟 Jamie Chung
       凯姆·吉甘戴 Cam Gigandet
       卡米拉·门德斯 Camila Mendes
       萨莎·亚历山大 Sasha Alexander
       埃利奥特·古尔德 Elliott Gould
       杰西·厄舍 Jessie Usher
       Garfield Wilson
       Briana Skye
       埃丽卡·麦基特里克 Erika McKitrick
       斯特凡尼亚·因德里凯托 Stefania Indelicato
       Nick Purcha
       Trevor Lerner


标  签 悬疑 | 美国 | 惊悚 | Netflix | 2020 | 美国电影 | 杰米·钟 | 凯姆·吉甘戴

简  介  

  一位老富翁过世后,他名下的财富出人料想地留给了服侍他未几的女看护,后者是以堕入了一张布满欺骗与假话的迷网。为了保存,她必须质疑一切人的动机 — 连她最亲最爱的人也不破例。
  1. Video
  2. ID                                       : 1
  3. Format                                   : AVC
  4. Format/Info                              : Advanced Video Codec
  5. Format profile                           : [email protected]
  6. Format settings                          : CABAC / 4 Ref Frames
  7. Format settings, CABAC                   : Yes
  8. Format settings, Reference frames        : 4 frames
  9. Codec ID                                 : avc1
  10. Codec ID/Info                            : Advanced Video Coding
  11. Duration                                 : 1 h 37 min
  12. Bit rate                                 : 2 500 kb/s
  13. Width                                    : 1 920 pixels
  14. Height                                   : 960 pixels
  15. Display aspect ratio                     : 2.000
  16. Frame rate mode                          : Constant
  17. Frame rate                               : 24.000 FPS
  18. Color space                              : YUV
  19. Chroma subsampling                       : 4:2:0
  20. Bit depth                                : 8 bits
  21. Scan type                                : Progressive
  22. Bits/(Pixel*Frame)                       : 0.057
  23. Stream size                              : 1.70 GiB (92%)
  24. Writing library                          : x264 core 152 r2851M ba24899
  25. Encoding settings                        : cabac=1 / ref=4 / deblock=1:-1:-1 / analyse=0x3:0x113 / me=umh / subme=9 / psy=1 / psy_rd=1.00:0.15 / mixed_ref=1 / me_range=24 / chroma_me=1 / trellis=2 / 8x8dct=1 / cqm=0 / deadzone=21,11 / fast_pskip=1 / chroma_qp_offset=-3 / threads=16 / lookahead_threads=4 / sliced_threads=0 / nr=0 / decimate=1 / interlaced=0 / bluray_compat=0 / constrained_intra=0 / bframes=3 / b_pyramid=2 / b_adapt=2 / b_bias=0 / direct=3 / weightb=1 / open_gop=0 / weightp=2 / keyint=250 / keyint_min=25 / scenecut=40 / intra_refresh=0 / rc_lookahead=50 / rc=2pass / mbtree=1 / bitrate=2500 / ratetol=1.0 / qcomp=0.60 / qpmin=0 / qpmax=69 / qpstep=4 / cplxblur=20.0 / qblur=0.5 / vbv_maxrate=31250 / vbv_bufsize=31250 / nal_hrd=none / filler=0 / ip_ratio=1.40 / aq=3:1.00
  26. Encoded date                             : UTC 2020-04-30 07:09:52
  27. Tagged date                              : UTC 2020-04-30 07:09:52
  28. Codec configuration box                  : avcC

  29. Audio
  30. ID                                       : 2
  31. Format                                   : AAC LC
  32. Format/Info                              : Advanced Audio Codec Low Complexity
  33. Codec ID                                 : mp4a-40-2
  34. Duration                                 : 1 h 37 min
  35. Duration_LastFrame                       : -11 ms
  36. Bit rate mode                            : Constant
  37. Bit rate                                 : 224 kb/s
  38. Channel(s)                               : 6 channels
  39. Channel layout                           : C L R Ls Rs LFE
  40. Sampling rate                            : 48.0 kHz
  41. Frame rate                               : 46.875 FPS (1024 SPF)
  42. Compression mode                         : Lossy
  43. Stream size                              : 156 MiB (8%)
  44. Language                                 : English
  45. Default                                  : Yes
  46. Alternate group                          : 1
  47. Encoded date                             : UTC 2020-04-30 07:09:52
  48. Tagged date                              : UTC 2020-04-30 07:09:52
复制代码

危险的假话/危险假话 Dangerous.Lies.2020.1080p.WEBRip.x264-RARBG 1.85GB-2.png 危险的假话/危险假话 Dangerous.Lies.2020.1080p.WEBRip.x264-RARBG 1.85GB-3.png 危险的假话/危险假话 Dangerous.Lies.2020.1080p.WEBRip.x264-RARBG 1.85GB-4.png







回复

使用道具 举报

懒得打字嘛,点击右侧快捷回复 【右侧内容,后台自定义】
您需要登录后才可以回帖 登录 | 立即加入

本版积分规则

Archiver|小黑屋| 蓝光电影网 |网站地图

Copyright © 2021 Comsenz Inc. Powered by 蓝光电影网

蓝光电影网

本站内容由用户自主分享和转载自互联网,转载目的在于传递更多信息,并不代表本网赞同其观点和对其真实性负责。

如有侵权、违反国家法律政策行为,请联系我们,我们会第一时间及时清除和处理!

举报反馈邮箱:[email protected]

快速回复 返回顶部 返回列表