找回密码

蓝光电影网

查看: 316|回复: 1

[喜剧] 动物园先生 Mr.Zoo.The.Missing.Vip.2020.KOREAN.1080p.NF.WEBRip.DDP5.1.x264-ARIN 3.55GB

[复制链接]
蓝光币
519
发表于 2020-4-30 22:04:21 | 显示全部楼层 |阅读模式
动物园师长 Mr.Zoo.The.Missing.Vip.2020.KOREAN.1080p.NF.WEBRip.DDP5.1.x264-ARIN 3.55GB-1.png

译  名 动物园师长 / Mr. Zoo: The Missing VIP / 动物园师长:消失的VIP / 周师长:消失的VIP / 好狗特攻队(港) / 明显会措辞(台)
片  名 ??? ?: ??? VIP
年  代 2020
产  地 韩国
类  别 笑剧
语  言 韩语
上映日期 2020-01-22(韩国)
IMDb评分  5.4/10 from 108 users
IMDb链接  https://www.imdb.com/title/tt11566166
豆瓣评分 6.2/10 from 3440 users
豆瓣链接 https://movie.douban.com/subject/30304015/
片  长 114分钟
导  演 金兑玧 Tae-yoon Kim
主  演 李星民 Sung-min Lee
       裴正南 Jung-nam Bae
       葛素媛 So-Won Kal
       金瑞亨 Seo-hyung Kim


标  签 笑剧 | 动物 | 韩国 | 韩国电影 | 奇异 | 电影 | 2020 | 金瑞亨

简  介  

  报告在行将迎来升迁的国家情报局ACE泰祖(李星民 饰)出任庇护中国特使大熊猫的保镳进程中,忽然遭受意外变乱。这是一部报告与动物停止相同的笑剧片。(翻译by @韩影画外音 )
  1. Video
  2. ID                                       : 1
  3. Format                                   : AVC
  4. Format/Info                              : Advanced Video Codec
  5. Format profile                           : [email protected]
  6. Format settings                          : CABAC / 3 Ref Frames
  7. Format settings, CABAC                   : Yes
  8. Format settings, Reference frames        : 3 frames
  9. Codec ID                                 : V_MPEG4/ISO/AVC
  10. Duration                                 : 1 h 53 min
  11. Bit rate mode                            : Variable
  12. Bit rate                                 : 3 830 kb/s
  13. Maximum bit rate                         : 5 745 kb/s
  14. Width                                    : 1 920 pixels
  15. Height                                   : 1 080 pixels
  16. Display aspect ratio                     : 16:9
  17. Frame rate mode                          : Constant
  18. Frame rate                               : 23.976 (24000/1001/189150) FPS
  19. Color space                              : YUV
  20. Chroma subsampling                       : 4:2:0
  21. Bit depth                                : 8 bits
  22. Scan type                                : Progressive
  23. Bits/(Pixel*Frame)                       : 0.077
  24. Stream size                              : 3.04 GiB (86%)
  25. Writing library                          : x264 core 148 r2717 0d2410d
  26. Encoding settings                        : cabac=1 / ref=3 / deblock=1:0:0 / analyse=0x1:0x111 / me=umh / subme=10 / psy=1 / psy_rd=1.00:0.00 / mixed_ref=1 / me_range=24 / chroma_me=1 / trellis=2 / 8x8dct=0 / cqm=0 / deadzone=21,11 / fast_pskip=1 / chroma_qp_offset=-2 / threads=8 / lookahead_threads=1 / sliced_threads=0 / nr=0 / decimate=1 / interlaced=0 / bluray_compat=0 / stitchable=1 / constrained_intra=0 / bframes=2 / b_pyramid=0 / b_adapt=2 / b_bias=0 / direct=3 / weightb=1 / open_gop=0 / weightp=2 / keyint=250 / keyint_min=23 / scenecut=0 / intra_refresh=0 / rc_lookahead=48 / rc=2pass / mbtree=1 / bitrate=3830 / ratetol=1.0 / qcomp=0.50 / qpmin=6 / qpmax=51 / qpstep=4 / cplxblur=20.0 / qblur=0.5 / vbv_maxrate=5745 / vbv_bufsize=7660 / nal_hrd=vbr / filler=0 / ip_ratio=1.40 / aq=1:1.00
  27. Default                                  : Yes
  28. Forced                                   : No

  29. Audio
  30. ID                                       : 2
  31. Format                                   : E-AC-3
  32. Format/Info                              : Enhanced AC-3
  33. Commercial name                          : Dolby Digital Plus
  34. Codec ID                                 : A_EAC3
  35. Duration                                 : 1 h 53 min
  36. Bit rate mode                            : Constant
  37. Bit rate                                 : 640 kb/s
  38. Channel(s)                               : 6 channels
  39. Channel layout                           : L R C LFE Ls Rs
  40. Sampling rate                            : 48.0 kHz
  41. Frame rate                               : 31.250 FPS (1536 SPF)
  42. Compression mode                         : Lossy
  43. Stream size                              : 521 MiB (14%)
  44. Language                                 : Korean
  45. Service kind                             : Complete Main
  46. Default                                  : Yes
  47. Forced                                   : No

  48. Text #1
  49. ID                                       : 3
  50. Format                                   : UTF-8
  51. Codec ID                                 : S_TEXT/UTF8
  52. Codec ID/Info                            : UTF-8 Plain Text
  53. Duration                                 : 1 h 53 min
  54. Bit rate                                 : 48 b/s
  55. Count of elements                        : 1407
  56. Stream size                              : 40.2 KiB (0%)
  57. Language                                 : English
  58. Default                                  : No
  59. Forced                                   : No

  60. Text #2
  61. ID                                       : 4
  62. Format                                   : UTF-8
  63. Codec ID                                 : S_TEXT/UTF8
  64. Codec ID/Info                            : UTF-8 Plain Text
  65. Duration                                 : 1 h 53 min
  66. Bit rate                                 : 101 b/s
  67. Count of elements                        : 2220
  68. Stream size                              : 84.0 KiB (0%)
  69. Language                                 : Korean
  70. Default                                  : No
  71. Forced                                   : No
复制代码

动物园师长 Mr.Zoo.The.Missing.Vip.2020.KOREAN.1080p.NF.WEBRip.DDP5.1.x264-ARIN 3.55GB-2.png 动物园师长 Mr.Zoo.The.Missing.Vip.2020.KOREAN.1080p.NF.WEBRip.DDP5.1.x264-ARIN 3.55GB-3.png 动物园师长 Mr.Zoo.The.Missing.Vip.2020.KOREAN.1080p.NF.WEBRip.DDP5.1.x264-ARIN 3.55GB-4.png







回复

使用道具 举报

懒得打字嘛,点击右侧快捷回复 【右侧内容,后台自定义】
您需要登录后才可以回帖 登录 | 立即加入

本版积分规则

Archiver|小黑屋| 蓝光电影网 |网站地图

Copyright © 2021 Comsenz Inc. Powered by 蓝光电影网

蓝光电影网

本站内容由用户自主分享和转载自互联网,转载目的在于传递更多信息,并不代表本网赞同其观点和对其真实性负责。

如有侵权、违反国家法律政策行为,请联系我们,我们会第一时间及时清除和处理!

举报反馈邮箱:[email protected]

快速回复 返回顶部 返回列表