找回密码

蓝光电影网

查看: 123|回复: 0

[剧情] 柯蒂斯/柯蒂斯:卡萨布兰卡之父 Curtiz.2018.1080p.NF.WEBRip.DDP5.1.x264-Ao 4.07GB

[复制链接]
蓝光币
519
发表于 2020-4-30 22:05:22 | 显示全部楼层 |阅读模式
柯蒂斯/柯蒂斯:卡萨布兰卡之父 Curtiz.2018.1080p.NF.WEBRip.DDP5.1.x264-Ao 4.07GB-1.png

译  名 柯蒂斯 / 柯蒂斯:卡萨布兰卡之父
片  名 Curtiz
年  代 2018
产  地 匈牙利
类  别 剧情 / 列传 / 历史
语  言 英语 / 匈牙利语
IMDb评分  6.1/10 from 491 users
IMDb链接  https://www.imdb.com/title/tt6774588
豆瓣评分 7.4/10 from 171 users
豆瓣链接 https://movie.douban.com/subject/30301431/
片  长 99分钟
导  演 Tamas Yvan Topolanszky
编  剧 Tamas Yvan Topolanszky / Zsuzsanna Bak / Ward Parry
主  演 丽丽·博尔丹 Lili Bordán
       卡罗琳·博尔顿 Caroline Boulton
       Nikolett Barabas
       Bj?rn Freiberg
       Declan Hannigan
       扬·费尔德曼 Yan Feldman
       斯科特·亚历山大·杨 Scott Alexander Young
       Kata Sarbó
       Rafael Feldman
       罗德里克·希尔 Roderick Hill
       Eszter Nagy-Kálózy
       杰瑞米·惠勒 Jeremy Wheeler
       József Gyabronka
       Ferenc Lengyel
       Christopher Krieg
       Daniel Gabori
       Sándor K?leséry


标  签 匈牙利 | 列传 | 迈克尔·柯蒂斯 | 文艺 | 2018 | 2019北影节 | 美国 | 电影

简  介  

  迈克尔·柯蒂兹是著名的匈牙利裔美国电影导演。他平生中执导了一百多部作品,是历史上最高产的导演之一。他凭仗《蹀血船主》(1935)、《罗宾汉历险记》(1938)、《春闺四凤》(1938)、《成功之歌》(1942)、《卡萨布兰卡》(1942)五度提名奥斯卡金像奖最好导演奖,并终极凭仗《卡萨布兰卡》获得该奖项。影片《柯蒂兹:卡萨布兰卡之父》改编自他在拍摄影史典范《卡萨布兰卡》时代的实在履历,展现了二战前夜,柯蒂兹是若何在创作的同时,一面应对政治的干扰,一面处置与女儿的冷淡关系。
  1. Video
  2. ID                                       : 1
  3. Format                                   : AVC
  4. Format/Info                              : Advanced Video Codec
  5. Format profile                           : [email protected]
  6. Format settings                          : CABAC / 4 Ref Frames
  7. Format settings, CABAC                   : Yes
  8. Format settings, Reference frames        : 4 frames
  9. Codec ID                                 : V_MPEG4/ISO/AVC
  10. Duration                                 : 1 h 38 min
  11. Bit rate mode                            : Variable
  12. Bit rate                                 : 5 250 kb/s
  13. Maximum bit rate                         : 20.0 Mb/s
  14. Width                                    : 1 920 pixels
  15. Height                                   : 1 080 pixels
  16. Display aspect ratio                     : 16:9
  17. Frame rate mode                          : Constant
  18. Frame rate                               : 24.000 FPS
  19. Color space                              : YUV
  20. Chroma subsampling                       : 4:2:0
  21. Bit depth                                : 8 bits
  22. Scan type                                : Progressive
  23. Bits/(Pixel*Frame)                       : 0.105
  24. Stream size                              : 3.62 GiB (89%)
  25. Writing library                          : x264 core 148 r2715 7e75228
  26. Encoding settings                        : cabac=1 / ref=4 / deblock=1:0:0 / analyse=0x3:0x111 / me=umh / subme=10 / psy=1 / psy_rd=1.00:0.00 / mixed_ref=1 / me_range=120 / chroma_me=1 / trellis=2 / 8x8dct=1 / cqm=0 / deadzone=21,11 / fast_pskip=1 / chroma_qp_offset=-2 / threads=8 / lookahead_threads=2 / sliced_threads=0 / nr=0 / decimate=1 / interlaced=0 / bluray_compat=0 / stitchable=1 / constrained_intra=0 / bframes=16 / b_pyramid=2 / b_adapt=2 / b_bias=0 / direct=3 / weightb=1 / open_gop=0 / weightp=2 / keyint=240 / keyint_min=121 / scenecut=0 / intra_refresh=0 / rc_lookahead=240 / rc=crf / mbtree=1 / crf=16.0 / qcomp=0.50 / qpmin=6 / qpmax=51 / qpstep=4 / vbv_maxrate=20000 / vbv_bufsize=25000 / crf_max=0.0 / nal_hrd=vbr / filler=0 / ip_ratio=1.40 / aq=1:0.80
  27. Default                                  : Yes
  28. Forced                                   : No

  29. Audio
  30. ID                                       : 2
  31. Format                                   : E-AC-3
  32. Format/Info                              : Enhanced AC-3
  33. Commercial name                          : Dolby Digital Plus
  34. Codec ID                                 : A_EAC3
  35. Duration                                 : 1 h 38 min
  36. Bit rate mode                            : Constant
  37. Bit rate                                 : 640 kb/s
  38. Channel(s)                               : 6 channels
  39. Channel layout                           : L R C LFE Ls Rs
  40. Sampling rate                            : 48.0 kHz
  41. Frame rate                               : 31.250 FPS (1536 SPF)
  42. Compression mode                         : Lossy
  43. Stream size                              : 452 MiB (11%)
  44. Title                                    : English [Original]
  45. Language                                 : English
  46. Service kind                             : Complete Main
  47. Default                                  : Yes
  48. Forced                                   : No

  49. Text #1
  50. ID                                       : 3
  51. Format                                   : UTF-8
  52. Codec ID                                 : S_TEXT/UTF8
  53. Codec ID/Info                            : UTF-8 Plain Text
  54. Duration                                 : 1 h 37 min
  55. Bit rate                                 : 63 b/s
  56. Count of elements                        : 1351
  57. Stream size                              : 45.3 KiB (0%)
  58. Title                                    : English
  59. Language                                 : English
  60. Default                                  : No
  61. Forced                                   : No

  62. Text #2
  63. ID                                       : 4
  64. Format                                   : UTF-8
  65. Codec ID                                 : S_TEXT/UTF8
  66. Codec ID/Info                            : UTF-8 Plain Text
  67. Duration                                 : 1 h 18 min
  68. Bit rate                                 : 7 b/s
  69. Count of elements                        : 154
  70. Stream size                              : 4.27 KiB (0%)
  71. Title                                    : Forced
  72. Language                                 : English
  73. Default                                  : No
  74. Forced                                   : Yes

  75. Text #3
  76. ID                                       : 5
  77. Format                                   : UTF-8
  78. Codec ID                                 : S_TEXT/UTF8
  79. Codec ID/Info                            : UTF-8 Plain Text
  80. Duration                                 : 1 h 37 min
  81. Bit rate                                 : 97 b/s
  82. Count of elements                        : 1279
  83. Stream size                              : 69.8 KiB (0%)
  84. Title                                    : Arabic
  85. Language                                 : Arabic
  86. Default                                  : No
  87. Forced                                   : No

  88. Text #4
  89. ID                                       : 6
  90. Format                                   : UTF-8
  91. Codec ID                                 : S_TEXT/UTF8
  92. Codec ID/Info                            : UTF-8 Plain Text
  93. Duration                                 : 1 h 37 min
  94. Bit rate                                 : 51 b/s
  95. Count of elements                        : 1271
  96. Stream size                              : 37.0 KiB (0%)
  97. Title                                    : Czech
  98. Language                                 : Czech
  99. Default                                  : No
  100. Forced                                   : No

  101. Text #5
  102. ID                                       : 7
  103. Format                                   : UTF-8
  104. Codec ID                                 : S_TEXT/UTF8
  105. Codec ID/Info                            : UTF-8 Plain Text
  106. Duration                                 : 1 h 37 min
  107. Bit rate                                 : 53 b/s
  108. Count of elements                        : 1223
  109. Stream size                              : 38.3 KiB (0%)
  110. Title                                    : Danish
  111. Language                                 : Danish
  112. Default                                  : No
  113. Forced                                   : No

  114. Text #6
  115. ID                                       : 8
  116. Format                                   : UTF-8
  117. Codec ID                                 : S_TEXT/UTF8
  118. Codec ID/Info                            : UTF-8 Plain Text
  119. Duration                                 : 1 h 37 min
  120. Bit rate                                 : 55 b/s
  121. Count of elements                        : 1234
  122. Stream size                              : 40.1 KiB (0%)
  123. Title                                    : German
  124. Language                                 : German
  125. Default                                  : No
  126. Forced                                   : No

  127. Text #7
  128. ID                                       : 9
  129. Format                                   : UTF-8
  130. Codec ID                                 : S_TEXT/UTF8
  131. Codec ID/Info                            : UTF-8 Plain Text
  132. Duration                                 : 1 h 37 min
  133. Bit rate                                 : 8 b/s
  134. Count of elements                        : 181
  135. Stream size                              : 6.25 KiB (0%)
  136. Title                                    : Forced
  137. Language                                 : German
  138. Default                                  : No
  139. Forced                                   : Yes

  140. Text #8
  141. ID                                       : 10
  142. Format                                   : UTF-8
  143. Codec ID                                 : S_TEXT/UTF8
  144. Codec ID/Info                            : UTF-8 Plain Text
  145. Duration                                 : 1 h 37 min
  146. Bit rate                                 : 92 b/s
  147. Count of elements                        : 1259
  148. Stream size                              : 66.1 KiB (0%)
  149. Title                                    : Greek
  150. Language                                 : Greek
  151. Default                                  : No
  152. Forced                                   : No

  153. Text #9
  154. ID                                       : 11
  155. Format                                   : UTF-8
  156. Codec ID                                 : S_TEXT/UTF8
  157. Codec ID/Info                            : UTF-8 Plain Text
  158. Duration                                 : 1 h 37 min
  159. Bit rate                                 : 53 b/s
  160. Count of elements                        : 1213
  161. Stream size                              : 38.4 KiB (0%)
  162. Title                                    : Spanish
  163. Language                                 : Spanish
  164. Default                                  : No
  165. Forced                                   : No

  166. Text #10
  167. ID                                       : 12
  168. Format                                   : UTF-8
  169. Codec ID                                 : S_TEXT/UTF8
  170. Codec ID/Info                            : UTF-8 Plain Text
  171. Duration                                 : 1 h 37 min
  172. Bit rate                                 : 8 b/s
  173. Count of elements                        : 185
  174. Stream size                              : 5.85 KiB (0%)
  175. Title                                    : Forced
  176. Language                                 : Spanish
  177. Default                                  : No
  178. Forced                                   : Yes

  179. Text #11
  180. ID                                       : 13
  181. Format                                   : UTF-8
  182. Codec ID                                 : S_TEXT/UTF8
  183. Codec ID/Info                            : UTF-8 Plain Text
  184. Duration                                 : 1 h 37 min
  185. Bit rate                                 : 53 b/s
  186. Count of elements                        : 1254
  187. Stream size                              : 38.6 KiB (0%)
  188. Title                                    : European Spanish
  189. Language                                 : Spanish
  190. Default                                  : No
  191. Forced                                   : No

  192. Text #12
  193. ID                                       : 14
  194. Format                                   : UTF-8
  195. Codec ID                                 : S_TEXT/UTF8
  196. Codec ID/Info                            : UTF-8 Plain Text
  197. Duration                                 : 1 h 37 min
  198. Bit rate                                 : 56 b/s
  199. Count of elements                        : 1266
  200. Stream size                              : 40.3 KiB (0%)
  201. Title                                    : Finnish
  202. Language                                 : Finnish
  203. Default                                  : No
  204. Forced                                   : No

  205. Text #13
  206. ID                                       : 15
  207. Format                                   : UTF-8
  208. Codec ID                                 : S_TEXT/UTF8
  209. Codec ID/Info                            : UTF-8 Plain Text
  210. Duration                                 : 1 h 37 min
  211. Bit rate                                 : 8 b/s
  212. Count of elements                        : 198
  213. Stream size                              : 6.32 KiB (0%)
  214. Title                                    : Forced
  215. Language                                 : French
  216. Default                                  : No
  217. Forced                                   : Yes

  218. Text #14
  219. ID                                       : 16
  220. Format                                   : UTF-8
  221. Codec ID                                 : S_TEXT/UTF8
  222. Codec ID/Info                            : UTF-8 Plain Text
  223. Duration                                 : 1 h 37 min
  224. Bit rate                                 : 85 b/s
  225. Count of elements                        : 1249
  226. Stream size                              : 61.0 KiB (0%)
  227. Title                                    : Hebrew
  228. Language                                 : Hebrew
  229. Default                                  : No
  230. Forced                                   : No

  231. Text #15
  232. ID                                       : 17
  233. Format                                   : UTF-8
  234. Codec ID                                 : S_TEXT/UTF8
  235. Codec ID/Info                            : UTF-8 Plain Text
  236. Duration                                 : 1 h 37 min
  237. Bit rate                                 : 55 b/s
  238. Count of elements                        : 1253
  239. Stream size                              : 39.7 KiB (0%)
  240. Title                                    : Hungarian
  241. Language                                 : Hungarian
  242. Default                                  : No
  243. Forced                                   : No

  244. Text #16
  245. ID                                       : 18
  246. Format                                   : UTF-8
  247. Codec ID                                 : S_TEXT/UTF8
  248. Codec ID/Info                            : UTF-8 Plain Text
  249. Duration                                 : 1 h 37 min
  250. Bit rate                                 : 56 b/s
  251. Count of elements                        : 1247
  252. Stream size                              : 40.8 KiB (0%)
  253. Title                                    : Indonesian
  254. Language                                 : Indonesian
  255. Default                                  : No
  256. Forced                                   : No

  257. Text #17
  258. ID                                       : 19
  259. Format                                   : UTF-8
  260. Codec ID                                 : S_TEXT/UTF8
  261. Codec ID/Info                            : UTF-8 Plain Text
  262. Duration                                 : 1 h 37 min
  263. Bit rate                                 : 52 b/s
  264. Count of elements                        : 1263
  265. Stream size                              : 37.5 KiB (0%)
  266. Title                                    : Italian
  267. Language                                 : Italian
  268. Default                                  : No
  269. Forced                                   : No

  270. Text #18
  271. ID                                       : 20
  272. Format                                   : UTF-8
  273. Codec ID                                 : S_TEXT/UTF8
  274. Codec ID/Info                            : UTF-8 Plain Text
  275. Duration                                 : 1 h 37 min
  276. Bit rate                                 : 81 b/s
  277. Count of elements                        : 1310
  278. Stream size                              : 58.5 KiB (0%)
  279. Title                                    : Korean
  280. Language                                 : Korean
  281. Default                                  : No
  282. Forced                                   : No

  283. Text #19
  284. ID                                       : 21
  285. Format                                   : UTF-8
  286. Codec ID                                 : S_TEXT/UTF8
  287. Codec ID/Info                            : UTF-8 Plain Text
  288. Duration                                 : 1 h 37 min
  289. Bit rate                                 : 52 b/s
  290. Count of elements                        : 1183
  291. Stream size                              : 37.4 KiB (0%)
  292. Title                                    : Norwegian
  293. Language                                 : Norwegian Bokmal
  294. Default                                  : No
  295. Forced                                   : No

  296. Text #20
  297. ID                                       : 22
  298. Format                                   : UTF-8
  299. Codec ID                                 : S_TEXT/UTF8
  300. Codec ID/Info                            : UTF-8 Plain Text
  301. Duration                                 : 1 h 37 min
  302. Bit rate                                 : 54 b/s
  303. Count of elements                        : 1191
  304. Stream size                              : 38.7 KiB (0%)
  305. Title                                    : Dutch
  306. Language                                 : Dutch
  307. Default                                  : No
  308. Forced                                   : No

  309. Text #21
  310. ID                                       : 23
  311. Format                                   : UTF-8
  312. Codec ID                                 : S_TEXT/UTF8
  313. Codec ID/Info                            : UTF-8 Plain Text
  314. Duration                                 : 1 h 37 min
  315. Bit rate                                 : 53 b/s
  316. Count of elements                        : 1216
  317. Stream size                              : 38.6 KiB (0%)
  318. Title                                    : Polish
  319. Language                                 : Polish
  320. Default                                  : No
  321. Forced                                   : No

  322. Text #22
  323. ID                                       : 24
  324. Format                                   : UTF-8
  325. Codec ID                                 : S_TEXT/UTF8
  326. Codec ID/Info                            : UTF-8 Plain Text
  327. Duration                                 : 1 h 37 min
  328. Bit rate                                 : 0 b/s
  329. Count of elements                        : 6
  330. Stream size                              : 183 Bytes (0%)
  331. Title                                    : Forced
  332. Language                                 : Polish
  333. Default                                  : No
  334. Forced                                   : Yes

  335. Text #23
  336. ID                                       : 25
  337. Format                                   : UTF-8
  338. Codec ID                                 : S_TEXT/UTF8
  339. Codec ID/Info                            : UTF-8 Plain Text
  340. Duration                                 : 1 h 37 min
  341. Bit rate                                 : 55 b/s
  342. Count of elements                        : 1272
  343. Stream size                              : 39.9 KiB (0%)
  344. Title                                    : Portuguese
  345. Language                                 : Portuguese
  346. Default                                  : No
  347. Forced                                   : No

  348. Text #24
  349. ID                                       : 26
  350. Format                                   : UTF-8
  351. Codec ID                                 : S_TEXT/UTF8
  352. Codec ID/Info                            : UTF-8 Plain Text
  353. Duration                                 : 1 h 37 min
  354. Bit rate                                 : 52 b/s
  355. Count of elements                        : 1265
  356. Stream size                              : 37.5 KiB (0%)
  357. Title                                    : Brazilian Portuguese
  358. Language                                 : Portuguese
  359. Default                                  : No
  360. Forced                                   : No

  361. Text #25
  362. ID                                       : 27
  363. Format                                   : UTF-8
  364. Codec ID                                 : S_TEXT/UTF8
  365. Codec ID/Info                            : UTF-8 Plain Text
  366. Duration                                 : 1 h 37 min
  367. Bit rate                                 : 8 b/s
  368. Count of elements                        : 193
  369. Stream size                              : 5.92 KiB (0%)
  370. Title                                    : Forced
  371. Language                                 : Portuguese
  372. Default                                  : No
  373. Forced                                   : Yes

  374. Text #26
  375. ID                                       : 28
  376. Format                                   : UTF-8
  377. Codec ID                                 : S_TEXT/UTF8
  378. Codec ID/Info                            : UTF-8 Plain Text
  379. Duration                                 : 1 h 37 min
  380. Bit rate                                 : 57 b/s
  381. Count of elements                        : 1268
  382. Stream size                              : 41.1 KiB (0%)
  383. Title                                    : Romanian
  384. Language                                 : Romanian
  385. Default                                  : No
  386. Forced                                   : No

  387. Text #27
  388. ID                                       : 29
  389. Format                                   : UTF-8
  390. Codec ID                                 : S_TEXT/UTF8
  391. Codec ID/Info                            : UTF-8 Plain Text
  392. Duration                                 : 1 h 37 min
  393. Bit rate                                 : 83 b/s
  394. Count of elements                        : 1278
  395. Stream size                              : 59.7 KiB (0%)
  396. Title                                    : Russian
  397. Language                                 : Russian
  398. Default                                  : No
  399. Forced                                   : No

  400. Text #28
  401. ID                                       : 30
  402. Format                                   : UTF-8
  403. Codec ID                                 : S_TEXT/UTF8
  404. Codec ID/Info                            : UTF-8 Plain Text
  405. Duration                                 : 1 h 37 min
  406. Bit rate                                 : 54 b/s
  407. Count of elements                        : 1264
  408. Stream size                              : 38.9 KiB (0%)
  409. Title                                    : Swedish
  410. Language                                 : Swedish
  411. Default                                  : No
  412. Forced                                   : No

  413. Text #29
  414. ID                                       : 31
  415. Format                                   : UTF-8
  416. Codec ID                                 : S_TEXT/UTF8
  417. Codec ID/Info                            : UTF-8 Plain Text
  418. Duration                                 : 1 h 37 min
  419. Bit rate                                 : 148 b/s
  420. Count of elements                        : 1274
  421. Stream size                              : 106 KiB (0%)
  422. Title                                    : Thai
  423. Language                                 : Thai
  424. Default                                  : No
  425. Forced                                   : No

  426. Text #30
  427. ID                                       : 32
  428. Format                                   : UTF-8
  429. Codec ID                                 : S_TEXT/UTF8
  430. Codec ID/Info                            : UTF-8 Plain Text
  431. Duration                                 : 1 h 37 min
  432. Bit rate                                 : 53 b/s
  433. Count of elements                        : 1276
  434. Stream size                              : 38.4 KiB (0%)
  435. Title                                    : Turkish
  436. Language                                 : Turkish
  437. Default                                  : No
  438. Forced                                   : No

  439. Text #31
  440. ID                                       : 33
  441. Format                                   : UTF-8
  442. Codec ID                                 : S_TEXT/UTF8
  443. Codec ID/Info                            : UTF-8 Plain Text
  444. Duration                                 : 1 h 37 min
  445. Bit rate                                 : 8 b/s
  446. Count of elements                        : 204
  447. Stream size                              : 6.27 KiB (0%)
  448. Title                                    : Forced
  449. Language                                 : Turkish
  450. Default                                  : No
  451. Forced                                   : Yes

  452. Text #32
  453. ID                                       : 34
  454. Format                                   : UTF-8
  455. Codec ID                                 : S_TEXT/UTF8
  456. Codec ID/Info                            : UTF-8 Plain Text
  457. Duration                                 : 1 h 37 min
  458. Bit rate                                 : 76 b/s
  459. Count of elements                        : 1248
  460. Stream size                              : 55.1 KiB (0%)
  461. Title                                    : Vietnamese
  462. Language                                 : Vietnamese
  463. Default                                  : No
  464. Forced                                   : No

  465. Text #33
  466. ID                                       : 35
  467. Format                                   : UTF-8
  468. Codec ID                                 : S_TEXT/UTF8
  469. Codec ID/Info                            : UTF-8 Plain Text
  470. Duration                                 : 1 h 37 min
  471. Bit rate                                 : 53 b/s
  472. Count of elements                        : 1278
  473. Stream size                              : 38.2 KiB (0%)
  474. Title                                    : Simplified Chinese
  475. Language                                 : Chinese
  476. Default                                  : No
  477. Forced                                   : No

  478. Text #34
  479. ID                                       : 36
  480. Format                                   : UTF-8
  481. Codec ID                                 : S_TEXT/UTF8
  482. Codec ID/Info                            : UTF-8 Plain Text
  483. Duration                                 : 1 h 37 min
  484. Bit rate                                 : 52 b/s
  485. Count of elements                        : 1277
  486. Stream size                              : 37.7 KiB (0%)
  487. Title                                    : Traditional Chinese
  488. Language                                 : Chinese
  489. Default                                  : No
  490. Forced                                   : No
复制代码

柯蒂斯/柯蒂斯:卡萨布兰卡之父 Curtiz.2018.1080p.NF.WEBRip.DDP5.1.x264-Ao 4.07GB-2.png 柯蒂斯/柯蒂斯:卡萨布兰卡之父 Curtiz.2018.1080p.NF.WEBRip.DDP5.1.x264-Ao 4.07GB-3.png 柯蒂斯/柯蒂斯:卡萨布兰卡之父 Curtiz.2018.1080p.NF.WEBRip.DDP5.1.x264-Ao 4.07GB-4.png







回复

使用道具 举报

懒得打字嘛,点击右侧快捷回复 【右侧内容,后台自定义】
您需要登录后才可以回帖 登录 | 立即加入

本版积分规则

Archiver|小黑屋| 蓝光电影网 |网站地图

Copyright © 2021 Comsenz Inc. Powered by 蓝光电影网

蓝光电影网

本站内容由用户自主分享和转载自互联网,转载目的在于传递更多信息,并不代表本网赞同其观点和对其真实性负责。

如有侵权、违反国家法律政策行为,请联系我们,我们会第一时间及时清除和处理!

举报反馈邮箱:[email protected]

快速回复 返回顶部 返回列表