找回密码

蓝光电影网

查看: 122|回复: 0

[剧情] 山洞探险 The.Cavern.2005.1080p.AMZN.WEBRip.DDP5.1.x264-monkee 5.68GB

[复制链接]
蓝光币
515
发表于 2020-5-1 10:42:23 | 显示全部楼层 |阅读模式
岩穴探险 The.Cavern.2005.1080p.AMZN.WEBRip.DDP5.1.x264-monkee 5.68GB-1.png

译  名 岩穴探险
片  名 Cavern
年  代 2005
产  地 美国
类  别 剧情 / 惊悚 / 可骇
语  言 英语
上映日期 2005
IMDb评分  2.8/10 from 1574 users
IMDb链接  https://www.imdb.com/title/tt0451262
豆瓣评分 0/10 from 0 users
豆瓣链接 https://movie.douban.com/subject/3605076/
片  长 95 分钟
导  演 Olatunde Osunsanmi
编  剧 Olatunde Osunsanmi
主  演 Sybil Temtchine
       Mustafa Shakir
       Ogy Durham
       Andrew Caple-Shaw


标  签 美国电影 | 可骇 | 美国 | 电影 | 挺惊险,剧情难明。 | 惊悚可骇 | 惊悚

简  介  

  八位岩穴探险爱好者聚集在一路.他们此次的探险方针是一座俄国的岩穴... 经历丰富的他们一进此洞就发现有点儿差池,同伴一个一个的死掉,无尽的黑暗与恐惧陪伴着他们。到底这洞里有什么呢?怪物还是猛兽?会有幸存者吗?... 终局实在是囧!
  1. Video
  2. ID                                       : 1
  3. Format                                   : AVC
  4. Format/Info                              : Advanced Video Codec
  5. Format profile                           : [email protected]
  6. Format settings                          : CABAC / 4 Ref Frames
  7. Format settings, CABAC                   : Yes
  8. Format settings, Reference frames        : 4 frames
  9. Codec ID                                 : V_MPEG4/ISO/AVC
  10. Duration                                 : 1 h 20 min
  11. Bit rate mode                            : Constant
  12. Bit rate                                 : 9 429 kb/s
  13. Nominal bit rate                         : 10 000 kb/s
  14. Width                                    : 1 920 pixels
  15. Height                                   : 1 080 pixels
  16. Display aspect ratio                     : 16:9
  17. Frame rate mode                          : Constant
  18. Frame rate                               : 23.976 (24000/1001/189150) FPS
  19. Color space                              : YUV
  20. Chroma subsampling                       : 4:2:0
  21. Bit depth                                : 8 bits
  22. Scan type                                : Progressive
  23. Bits/(Pixel*Frame)                       : 0.190
  24. Stream size                              : 5.31 GiB (94%)
  25. Language                                 : English
  26. Default                                  : Yes
  27. Forced                                   : No
  28. Color range                              : Limited
  29. Color primaries                          : BT.709
  30. Transfer characteristics                 : BT.709
  31. Matrix coefficients                      : BT.709

  32. Audio
  33. ID                                       : 2
  34. Format                                   : E-AC-3
  35. Format/Info                              : Enhanced AC-3
  36. Commercial name                          : Dolby Digital Plus
  37. Codec ID                                 : A_EAC3
  38. Duration                                 : 1 h 20 min
  39. Bit rate mode                            : Constant
  40. Bit rate                                 : 640 kb/s
  41. Channel(s)                               : 6 channels
  42. Channel layout                           : L R C LFE Ls Rs
  43. Sampling rate                            : 48.0 kHz
  44. Frame rate                               : 31.250 FPS (1536 SPF)
  45. Compression mode                         : Lossy
  46. Stream size                              : 369 MiB (6%)
  47. Language                                 : English
  48. Service kind                             : Complete Main
  49. Default                                  : Yes
  50. Forced                                   : No

  51. Text #1
  52. ID                                       : 3
  53. Format                                   : UTF-8
  54. Codec ID                                 : S_TEXT/UTF8
  55. Codec ID/Info                            : UTF-8 Plain Text
  56. Duration                                 : 1 h 14 min
  57. Bit rate                                 : 45 b/s
  58. Count of elements                        : 1031
  59. Stream size                              : 24.8 KiB (0%)
  60. Language                                 : English
  61. Default                                  : No
  62. Forced                                   : No

  63. Text #2
  64. ID                                       : 4
  65. Format                                   : UTF-8
  66. Codec ID                                 : S_TEXT/UTF8
  67. Codec ID/Info                            : UTF-8 Plain Text
  68. Duration                                 : 1 h 14 min
  69. Bit rate                                 : 45 b/s
  70. Count of elements                        : 1033
  71. Stream size                              : 24.9 KiB (0%)
  72. Title                                    : SDH
  73. Language                                 : English
  74. Default                                  : No
  75. Forced                                   : No
复制代码

岩穴探险 The.Cavern.2005.1080p.AMZN.WEBRip.DDP5.1.x264-monkee 5.68GB-2.png 岩穴探险 The.Cavern.2005.1080p.AMZN.WEBRip.DDP5.1.x264-monkee 5.68GB-3.png 岩穴探险 The.Cavern.2005.1080p.AMZN.WEBRip.DDP5.1.x264-monkee 5.68GB-4.png







回复

使用道具 举报

懒得打字嘛,点击右侧快捷回复 【右侧内容,后台自定义】
您需要登录后才可以回帖 登录 | 立即加入

本版积分规则

Archiver|小黑屋| 蓝光电影网 |网站地图

Copyright © 2021 Comsenz Inc. Powered by 蓝光电影网

蓝光电影网

本站内容由用户自主分享和转载自互联网,转载目的在于传递更多信息,并不代表本网赞同其观点和对其真实性负责。

如有侵权、违反国家法律政策行为,请联系我们,我们会第一时间及时清除和处理!

举报反馈邮箱:[email protected]

快速回复 返回顶部 返回列表