找回密码

蓝光电影网

查看: 727|回复: 1

[全集] [火星时代/火星探索 Mars 第二季][全06集打包][MKV][1080P]

[复制链接]
蓝光币
515
发表于 2020-5-1 10:58:06 | 显示全部楼层 |阅读模式
[火星时代/火星摸索 Mars 第二季][全06集打包][MKV][1080P]-1.jpg

译  名 火星时代 第二季 / 火星使命

片  名 Mars Season 2

年  代 2018

产  地 美国

类  别 剧情 / 科幻 / 冒险

语  言 英语

上映日期 2018-11-12(美国)

IMDb评分 7.6/10 from 7 users

IMDb链接 http://www.imdb.com/title/tt6427506

集  数 6

主  演 Éva Magyar










简  介




  纵观人类历史,人类活动的动机和目标不外乎两种:要末为了取利,要末为了摸索。可假如强行将两者连系起来,人类能否能打破桎梏?换言之,生活在与地球隔断的红色星球上的第一批「火星人」能否能避免重蹈地球人类的覆辙?还是说他们从踏上火星的那一刻起头就已经给自己挖好了宅兆?当第二季起头时,故事时候向前腾跃了五年,人类的第一次火星殖民使命获得了成功,国际火星科学基金会(IMSF)的摸索小组不但在火星概况平安着陆,还建立起第一个假寓点。2042年,国际火星科学基金会在火星上建成功用完整的殖民地「奥林匹斯城」(Olympus Town)。国际火星科学基金会已经没法自力承当火星使命的高额开销,因而他们向一些私人范畴敞开了大门。最初去火星的科学家和矿工只在意科学与摸索使命,可是新的援助企业卢克拉姆产业团体却将获利作为重要使命。当新天下的内部冲突越来越激化时,红色星球上的每小我都面临应战。




第二季的内容仍然分为有剧本和无剧本两部分。在有剧本方面,怀孕、分手、新的爱情、沾抱病、精神解体、停电、受伤、锻炼、进餐、交际这些平常生活中最普通的工作在悠远的火星上变得不再普通。九年前第一批登上火星的科学家只对科研活动(特别是寻觅火星生命)感爱好,但他们的新邻人——来自卢克拉姆产业团体的矿工——却经常给他们制造麻烦。与此同时,糟糕的自然灾难攻击了大本营,在火星上诞生的第一代孩子起头打仗这个新天下,某些亲人、爱人和朋友则不幸死亡。Jihae、Jeff Hephner和Esai Morales介入第二季表演。在无剧本(记载片)方面,镜头将瞄准地球上最初一块净土:北极。一系列人类活动已经严重危及地球生物的保存,让人类逐步损失成为一个「太空种族」的机遇。当两极的永冻层起头融解后,海平面上升、风行疾病增加等一系列题目大量出现。





  1. Video
  2. ID : 1
  3. Format : AVC
  4. Format/Info : Advanced Video Codec
  5. Format profile : [email protected]
  6. Format settings : CABAC / 4 Ref Frames
  7. Format settings, CABAC : Yes
  8. Format settings, ReFrames : 4 frames
  9. Codec ID : V_MPEG4/ISO/AVC
  10. Duration : 46 min 58 s
  11. Bit rate : 10.9 Mb/s
  12. Width : 1 920 pixels
  13. Height : 1 080 pixels
  14. Display aspect ratio : 16:9
  15. Frame rate mode : Constant
  16. Frame rate : 23.976 (24000/1001) FPS
  17. Color space : YUV
  18. Chroma subsampling : 4:2:0
  19. Bit depth : 8 bits
  20. Scan type : Progressive
  21. Bits/(Pixel*Frame) : 0.220
  22. Stream size : 3.58 GiB (94%)
  23. Default : Yes
  24. Forced : No
  25. Color range : Limited
  26. Color primaries : BT.709
  27. Transfer characteristics : BT.709
  28. Matrix coefficients : BT.709

  29. Audio
  30. ID : 2
  31. Format : E-AC-3
  32. Format/Info : Enhanced AC-3
  33. Commercial name : Dolby Digital Plus
  34. Codec ID : A_EAC3
  35. Duration : 46 min 58 s
  36. Bit rate mode : Constant
  37. Bit rate : 640 kb/s
  38. Channel(s) : 6 channels
  39. Channel layout : L R C LFE Ls Rs
  40. Sampling rate : 48.0 kHz
  41. Frame rate : 31.250 FPS (1536 SPF)
  42. Compression mode : Lossy
  43. Stream size : 215 MiB (6%)
  44. Language : English
  45. Service kind : Complete Main
  46. Default : Yes
  47. Forced : No

  48. Text
  49. ID : 3
  50. Format : UTF-8
  51. Codec ID : S_TEXT/UTF8
  52. Codec ID/Info : UTF-8 Plain Text
  53. Duration : 46 min 50 s
  54. Bit rate : 88 b/s
  55. Count of elements : 713
  56. Stream size : 30.4 KiB (0%)
  57. Title : English (SDH)
  58. Language : English
  59. Default : No
  60. Forced : No
复制代码




[火星时代/火星摸索 Mars 第二季][全06集打包][MKV][1080P]-2.jpg [火星时代/火星摸索 Mars 第二季][全06集打包][MKV][1080P]-3.jpg






回复

使用道具 举报

懒得打字嘛,点击右侧快捷回复 【右侧内容,后台自定义】
您需要登录后才可以回帖 登录 | 立即加入

本版积分规则

Archiver|小黑屋| 蓝光电影网 |网站地图

Copyright © 2021 Comsenz Inc. Powered by 蓝光电影网

蓝光电影网

本站内容由用户自主分享和转载自互联网,转载目的在于传递更多信息,并不代表本网赞同其观点和对其真实性负责。

如有侵权、违反国家法律政策行为,请联系我们,我们会第一时间及时清除和处理!

举报反馈邮箱:[email protected]

快速回复 返回顶部 返回列表