找回密码

蓝光电影网

查看: 225|回复: 0

[喜剧] 碧血烟花/碧血烟花戴斯屈出马 Destry.Rides.Again.1939.REMASTERED.720p.BluRay.X264-AMIABLE 4.32GB

[复制链接]
蓝光币
515
发表于 2020-5-1 18:12:19 | 显示全部楼层 |阅读模式
碧血烟花/碧血烟花戴斯屈出马 Destry.Rides.Again.1939.REMASTERED.720p.BluRay.X264-AMIABLE 4.32GB-1.png

译  名 碧血烟花 / 碧血烟花,戴斯屈出马
片  名 Destry Rides Again
年  代 1939
产  地 美国
类  别 笑剧 / 西部
语  言 英语 / 俄语
上映日期 1939-12-29
IMDb评分  7.7/10 from 9594 users
IMDb链接  https://www.imdb.com/title/tt0031225
豆瓣评分 7.8/10 from 884 users
豆瓣链接 https://movie.douban.com/subject/1304404/
片  长 94 分钟
导  演 乔治·马歇尔 George Marshall
编  剧 Felix Jackson / Frances Hyland / Henry Myers
主  演 詹姆斯·斯图尔特 James Stewart
       玛琳·黛德丽 Marlene Dietrich


标  签 美国 | 西部片 | 西部 | JamesStewart | 1939 | MarleneDietrich | 詹姆斯·斯图尔特 | 美国电影

简  介  

  肯特是美国西部巴特尔勒克特市的头头,他由于一种做弊的纸牌游戏落入了城镇巡查队员的控制当中,也使得一个叫谢里夫·科格的人被杀戮了。该市市长与肯特谋害使本镇堕入紊乱,以获得自己的好处,他们放置了一个华盛顿·蒂斯代尔的人作为新的治安官,他们以为这小我很好控制。可是,他们不晓得蒂斯代尔本来是一个著名检察官汤姆·戴斯特里的代理人,戴斯特里有强大的势力,可以放置更增强大的人马来作为蒂斯代尔的副手。肯特和市长没有想到这一点,虽然他们经过各类周密的计划,想要控制全部局势的成长,但终极失利了,他们的诡计和罪行大白于全国。
  1. Video
  2. ID                                       : 1
  3. Format                                   : AVC
  4. Format/Info                              : Advanced Video Codec
  5. Format profile                           : [email protected]
  6. Format settings                          : CABAC / 11 Ref Frames
  7. Format settings, CABAC                   : Yes
  8. Format settings, Reference frames        : 11 frames
  9. Codec ID                                 : V_MPEG4/ISO/AVC
  10. Duration                                 : 1 h 35 min
  11. Bit rate                                 : 5 905 kb/s
  12. Width                                    : 972 pixels
  13. Height                                   : 720 pixels
  14. Display aspect ratio                     : 4:3
  15. Frame rate mode                          : Constant
  16. Frame rate                               : 23.976 (24000/1001/189150) FPS
  17. Color space                              : YUV
  18. Chroma subsampling                       : 4:2:0
  19. Bit depth                                : 8 bits
  20. Scan type                                : Progressive
  21. Bits/(Pixel*Frame)                       : 0.352
  22. Stream size                              : 3.92 GiB (91%)
  23. Writing library                          : x264 core 159 r2991 1771b55
  24. Encoding settings                        : cabac=1 / ref=11 / deblock=1:-3:-3 / analyse=0x3:0x133 / me=umh / subme=10 / psy=1 / psy_rd=1.05:0.00 / mixed_ref=1 / me_range=24 / chroma_me=1 / trellis=2 / 8x8dct=1 / cqm=0 / deadzone=21,11 / fast_pskip=0 / chroma_qp_offset=-2 / threads=22 / lookahead_threads=5 / sliced_threads=0 / nr=0 / decimate=0 / interlaced=0 / bluray_compat=0 / constrained_intra=0 / bframes=10 / b_pyramid=2 / b_adapt=2 / b_bias=0 / direct=3 / weightb=1 / open_gop=0 / weightp=2 / keyint=240 / keyint_min=24 / scenecut=40 / intra_refresh=0 / rc=crf / mbtree=0 / crf=17.0 / qcomp=0.65 / qpmin=0 / qpmax=69 / qpstep=4 / ip_ratio=1.30 / pb_ratio=1.20 / aq=3:0.65
  25. Default                                  : Yes
  26. Forced                                   : No
  27. Color range                              : Limited
  28. Matrix coefficients                      : BT.709

  29. Audio
  30. ID                                       : 2
  31. Format                                   : FLAC
  32. Format/Info                              : Free Lossless Audio Codec
  33. Codec ID                                 : A_FLAC
  34. Duration                                 : 1 h 35 min
  35. Bit rate mode                            : Variable
  36. Bit rate                                 : 582 kb/s
  37. Channel(s)                               : 1 channel
  38. Channel layout                           : C
  39. Sampling rate                            : 48.0 kHz
  40. Frame rate                               : 11.719 FPS (4096 SPF)
  41. Bit depth                                : 24 bits
  42. Compression mode                         : Lossless
  43. Stream size                              : 396 MiB (9%)
  44. Writing library                          : libFLAC 1.2.1 (UTC 2007-09-17)
  45. Language                                 : English
  46. Default                                  : Yes
  47. Forced                                   : No

  48. Text #1
  49. ID                                       : 3
  50. Format                                   : UTF-8
  51. Codec ID                                 : S_TEXT/UTF8
  52. Codec ID/Info                            : UTF-8 Plain Text
  53. Duration                                 : 1 h 33 min
  54. Bit rate                                 : 83 b/s
  55. Count of elements                        : 1391
  56. Stream size                              : 57.4 KiB (0%)
  57. Title                                    : Stripped SRT
  58. Language                                 : English
  59. Default                                  : No
  60. Forced                                   : No

  61. Text #2
  62. ID                                       : 4
  63. Format                                   : UTF-8
  64. Codec ID                                 : S_TEXT/UTF8
  65. Codec ID/Info                            : UTF-8 Plain Text
  66. Duration                                 : 1 h 33 min
  67. Bit rate                                 : 88 b/s
  68. Count of elements                        : 1485
  69. Stream size                              : 60.8 KiB (0%)
  70. Title                                    : SDH SRT
  71. Language                                 : English
  72. Default                                  : No
  73. Forced                                   : No

  74. Text #3
  75. ID                                       : 5
  76. Format                                   : PGS
  77. Muxing mode                              : zlib
  78. Codec ID                                 : S_HDMV/PGS
  79. Codec ID/Info                            : Picture based subtitle format used on BDs/HD-DVDs
  80. Duration                                 : 1 h 33 min
  81. Bit rate                                 : 72.7 kb/s
  82. Count of elements                        : 2972
  83. Stream size                              : 48.7 MiB (1%)
  84. Title                                    : English SDH
  85. Language                                 : English
  86. Default                                  : No
  87. Forced                                   : No

  88. Menu
  89. 00:00:00.000                             : en:Chapter 01
  90. 00:02:16.636                             : en:Chapter 02
  91. 00:05:26.493                             : en:Chapter 03
  92. 00:09:48.338                             : en:Chapter 04
  93. 00:15:22.880                             : en:Chapter 05
  94. 00:19:53.025                             : en:Chapter 06
  95. 00:22:13.290                             : en:Chapter 07
  96. 00:27:08.627                             : en:Chapter 08
  97. 00:30:58.940                             : en:Chapter 09
  98. 00:36:29.646                             : en:Chapter 10
  99. 00:39:33.371                             : en:Chapter 11
  100. 00:43:06.000                             : en:Chapter 12
  101. 00:48:25.694                             : en:Chapter 13
  102. 00:52:29.313                             : en:Chapter 14
  103. 00:56:34.641                             : en:Chapter 15
  104. 00:58:22.874                             : en:Chapter 16
  105. 01:01:54.711                             : en:Chapter 17
  106. 01:05:16.830                             : en:Chapter 18
  107. 01:12:22.421                             : en:Chapter 19
  108. 01:17:25.641                             : en:Chapter 20
  109. 01:25:52.939                             : en:Chapter 21
  110. 01:31:21.393                             : en:Chapter 22
  111. 01:34:10.436                             : en:Chapter 23
复制代码

碧血烟花/碧血烟花戴斯屈出马 Destry.Rides.Again.1939.REMASTERED.720p.BluRay.X264-AMIABLE 4.32GB-2.png







回复

使用道具 举报

懒得打字嘛,点击右侧快捷回复 【右侧内容,后台自定义】
您需要登录后才可以回帖 登录 | 立即加入

本版积分规则

Archiver|小黑屋| 蓝光电影网 |网站地图

Copyright © 2021 Comsenz Inc. Powered by 蓝光电影网

蓝光电影网

本站内容由用户自主分享和转载自互联网,转载目的在于传递更多信息,并不代表本网赞同其观点和对其真实性负责。

如有侵权、违反国家法律政策行为,请联系我们,我们会第一时间及时清除和处理!

举报反馈邮箱:[email protected]

快速回复 返回顶部 返回列表