找回密码

蓝光电影网

查看: 2669|回复: 5

[动作] 重装捍将 Silent.Trigger.1996.1080p.BluRay.x264.DTS-FGT 11.9GB

[复制链接]
蓝光币
515
发表于 2020-5-2 00:54:42 | 显示全部楼层 |阅读模式

重装捍将 Silent.Trigger.1996.1080p.BluRay.x264.DTS-FGT 11.9GB-1.jpg
◎译  名 重装捍将
◎片  名 Silent Trigger
◎年  代 1996
◎国  家 加拿大/英国
◎类  别 行动/剧情/惊悚
◎语  言 英语
◎上映日期 1996-07-04
◎IMDb评分5.5/10 from 2,523 users
◎IMDb链接http://www.imdb.com/title/tt0117653/
◎豆瓣评分 6.2/10 from 239 users
◎豆瓣链接 http://movie.douban.com/subject/1299028/
◎片  长 Germany: 88 分钟/USA: 93 分钟
◎导  演 拉塞尔·穆卡希 Russell Mulcahy
◎主  演 杜夫·龙格尔 Dolph Lundgren
      吉娜·贝尔曼 Gina Bellman
      Conrad Dunn
      克里斯托弗·赫耶达尔 Christopher Heyerdahl
      Emma Stevens
      Alexandria Haber
      Reynald Robinson
      Dale Hayes
      艾琳·西姆斯 Erin Simms
      Jonathan Robert Rondeau
      Carl Alacchi
      Jonathan Larocque
      安德里亚斯·艾波吉斯 Andreas Apergis
      Tim Post
      Jason Cavalier
◎简  介
  特务机关成员飞鹰一号,在战时是一位优异的狙击手,战争竣事后,暗杀使命仍延续,他在实行屡次暗杀行动后,懊悔自己如刽子手般的屠杀行动,使命指示官发觉他的心态,黑暗派杀手预备消灭他,女助理侦测员飞鹰二号并不知情,几近遇害,事后,他们俩人又再次被指派同一使命。飞鹰一号发觉有异、进步警悟,并决议使命竣事后,退出机关。狙击行动在一栋未完工的摩天大楼展开,飞鹰二号伪装成电脑工程师经过大楼保镳检查,大楼保镳欧哈拉色迷心窍狡计不轨,为达方针不惜暴力相向,纠缠不休,特务机关黑暗派来消灭他们的杀手已预备就诸,伺机脱手,飞鹰一号、二号被困在摩天大楼里展开了惊心动迫的自救行动。
  1. Video
  2. ID             : 1
  3. Format           : AVC
  4. Format/Info          : Advanced Video Codec
  5. Format profile         : [email protected]
  6. Format settings, CABAC       : Yes
  7. Format settings, ReFrames      : 5 frames
  8. Codec ID           : V_MPEG4/ISO/AVC
  9. Duration           : 1h 33mn
  10. Bit rate           : 17.0 Mbps
  11. Width            : 1 920 pixels
  12. Height           : 816 pixels
  13. Display aspect ratio       : 2.35:1
  14. Frame rate mode        : Constant
  15. Frame rate           : 23.976 fps
  16. Color space          : YUV
  17. Chroma subsampling       : 4:2:0
  18. Bit depth          : 8 bits
  19. Scan type          : Progressive
  20. Bits/(Pixel*Frame)       : 0.453
  21. Stream size          : 11.2 GiB (94%)
  22. Writing library        : x264 core 142 r2431+42 c69a006 tMod [[email protected]:2:0 X86_64]
  23. Encoding settings        : cabac=1 / ref=5 / deblock=1:-3:-3 / analyse=0x3:0x133 / me=umh / subme=10 / psy=1 / fade_compensate=0.00 / psy_rd=1.00:0.00 / mixed_ref=1 / me_range=24 / chroma_me=1 / trellis=2 / 8x8dct=1 / cqm=0 / deadzone=21,11 / fast_pskip=1 / chroma_qp_offset=-2 / threads=12 / lookahead_threads=2 / sliced_threads=0 / nr=0 / decimate=1 / interlaced=0 / bluray_compat=0 / constrained_intra=0 / fgo=0 / bframes=8 / b_pyramid=2 / b_adapt=2 / b_bias=0 / direct=3 / weightb=1 / open_gop=0 / weightp=2 / keyint=250 / keyint_min=23 / scenecut=40 / intra_refresh=0 / rc_lookahead=60 / rc=crf / mbtree=0 / crf=19.7000 / qcomp=0.65 / qpmin=0:0:0 / qpmax=69:69:69 / qpstep=4 / vbv_maxrate=62500 / vbv_bufsize=78125 / crf_max=0.0 / nal_hrd=none / filler=0 / ip_ratio=1.30 / pb_ratio=1.20 / aq=4:0.85 / aq-sensitivity=10.00 / aq-factor=1.00:1.00:1.00 / aq2=0 / aq3=0
  24. Language           : English
  25. Default            : Yes
  26. Forced           : No
  27. Color range          : Limited
  28. Matrix coefficients        : BT.709
  29. Audio
  30. ID             : 2
  31. Format           : DTS
  32. Format/Info          : Digital Theater Systems
  33. Mode             : 16
  34. Format settings, Endianness    : Big
  35. Codec ID           : A_DTS
  36. Duration           : 1h 33mn
  37. Bit rate mode          : Constant
  38. Bit rate           : 768 Kbps
  39. Channel(s)           : 6 channels
  40. Channel positions        : Front: L C R, Side: L R, LFE
  41. Sampling rate          : 48.0 KHz
  42. Bit depth          : 16 bits
  43. Compression mode         : Lossy
  44. Stream size          : 516 MiB (4%)
  45. Language           : English
  46. Default            : Yes
  47. Forced           : No
  48. Text
  49. ID             : 3
  50. Format           : UTF-8
  51. Codec ID           : S_TEXT/UTF8
  52. Codec ID/Info          : UTF-8 Plain Text
  53. Language           : English
  54. Default            : No
  55. Forced           : No
  56. Menu
  57. 00:00:00.000         : :00:00:00.000
  58. 00:10:55.446         : :00:10:55.446
  59. 00:27:06.124         : :00:27:06.124
  60. 00:38:09.496         : :00:38:09.496
  61. 00:50:39.286         : :00:50:39.286
  62. 01:01:01.825         : :01:01:01.825
  63. 01:13:00.167         : :01:13:00.167
  64. 01:30:20.624         : :01:30:20.624
  65. 01:33:42.700         : :01:33:42.700
复制代码

重装捍将 Silent.Trigger.1996.1080p.BluRay.x264.DTS-FGT 11.9GB-2.jpg 重装捍将 Silent.Trigger.1996.1080p.BluRay.x264.DTS-FGT 11.9GB-3.jpg
重装捍将 Silent.Trigger.1996.1080p.BluRay.x264.DTS-FGT 11.9GB-4.jpg 重装捍将 Silent.Trigger.1996.1080p.BluRay.x264.DTS-FGT 11.9GB-5.jpg
重装捍将 Silent.Trigger.1996.1080p.BluRay.x264.DTS-FGT 11.9GB-6.jpg 重装捍将 Silent.Trigger.1996.1080p.BluRay.x264.DTS-FGT 11.9GB-7.jpg                           

                                                




回复

使用道具 举报

蓝光币
1869
发表于 2020-5-2 18:32:19 | 显示全部楼层

我看不错噢 谢谢楼主!蓝光电影网越来越好!
回复 支持 反对

使用道具 举报

蓝光币
325
发表于 2020-5-4 11:49:34 | 显示全部楼层

楼主太厉害了!楼主,电影应该很好看我觉得蓝光电影网真是个好地方!
回复 支持 反对

使用道具 举报

蓝光币
641
发表于 2020-5-4 17:17:05 | 显示全部楼层
谢谢楼主无私分享。
回复 支持 反对

使用道具 举报

蓝光币
61
发表于 2020-8-22 12:17:38 | 显示全部楼层

我看不错噢 谢谢楼主!蓝光电影网越来越好!
回复 支持 反对

使用道具 举报

蓝光币
109
发表于 2020-12-28 16:08:16 | 显示全部楼层
这部电影还真是非常经典的呢
回复 支持 反对

使用道具 举报

懒得打字嘛,点击右侧快捷回复 【右侧内容,后台自定义】
您需要登录后才可以回帖 登录 | 立即加入

本版积分规则

Archiver|小黑屋| 蓝光电影网 |网站地图

Copyright © 2021 Comsenz Inc. Powered by 蓝光电影网

蓝光电影网

本站内容由用户自主分享和转载自互联网,转载目的在于传递更多信息,并不代表本网赞同其观点和对其真实性负责。

如有侵权、违反国家法律政策行为,请联系我们,我们会第一时间及时清除和处理!

举报反馈邮箱:[email protected]

快速回复 返回顶部 返回列表